<?xml version="1.0" standalone="no"?>
<!DOCTYPE svg PUBLIC "-//W3C//DTD SVG 1.1//EN" "http://www.w3.org/Graphics/SVG/1.1/DTD/svg11.dtd" >
<svg xmlns="http://www.w3.org/2000/svg" xmlns:xlink="http://www.w3.org/1999/xlink" version="1.1">
<metadata></metadata>
<defs>
<font id="roboto_monolight_italic" horiz-adv-x="1202" >
<font-face units-per-em="2048" ascent="1536" descent="-512" />
<missing-glyph horiz-adv-x="500" />
<glyph horiz-adv-x="0" />
<glyph horiz-adv-x="0" />
<glyph />
<glyph unicode="&#x9;" />
<glyph unicode=" " />
<glyph unicode="!" d="M607 435h-119l178 1021h119zM406 72q3 34 28.5 59t60.5 26q18 0 33 -6.5t26 -18t16.5 -27t4.5 -33.5q-2 -35 -28.5 -57.5t-61.5 -23.5t-58 22.5t-21 58.5z" />
<glyph unicode="&#x22;" d="M621 1404l-65 -314h-91l55 323l18 123h105zM915 1407l-65 -317h-91l55 322l19 124h105z" />
<glyph unicode="#" d="M672 410h-299l-147 -410h-101l146 410h-246l16 93h262l158 441h-270l17 96h286l150 416h102l-150 -416h300l150 416h101l-149 -416h222l-17 -96h-239l-157 -441h247l-17 -93h-263l-147 -410h-102zM405 503h300l157 441h-299z" />
<glyph unicode="$" d="M893 367q6 63 -14 111t-57.5 84.5t-86.5 63.5t-100 48q-71 29 -134.5 65t-110 85t-71.5 113.5t-19 149.5q6 87 41 155.5t90.5 118t128 78.5t155.5 37l34 201h102l-35 -204q85 -13 143.5 -54.5t92.5 -102t46.5 -135t6.5 -153.5h-117q5 62 -5 122.5t-38.5 108.5t-76.5 78.5 t-119 32.5q-64 2 -121 -17.5t-101 -56.5t-73 -89.5t-36 -116.5q-7 -66 13 -114.5t57.5 -85t87.5 -63t103 -47.5q70 -29 133.5 -65t110 -84.5t71 -113t18.5 -148.5q-7 -89 -43 -157.5t-93 -117t-131.5 -76.5t-157.5 -37l-33 -189h-103l34 190q-90 10 -156.5 46.5t-109.5 94 t-62 133t-13 162.5h118q-5 -71 10.5 -131.5t51 -105t90.5 -70.5t129 -27q64 -1 124 18t108 55.5t79.5 89.5t38.5 120z" />
<glyph unicode="%" d="M143 1184q10 54 34.5 106.5t61.5 94t86.5 67t109.5 25.5q61 0 103 -26t66.5 -68t32 -94.5t0.5 -104.5l-13 -77q-10 -54 -34.5 -106t-61.5 -92.5t-86 -66t-109 -25.5t-102 26t-67 67t-33.5 93t-0.5 104zM224 1107q-5 -32 -3.5 -68t14 -66t37.5 -49t66 -19t73 18.5 t55.5 47.5t38.5 65t23 71l15 77q5 32 3.5 68t-13.5 66.5t-36.5 50.5t-66.5 20q-41 0 -73.5 -18.5t-56.5 -48.5t-39.5 -66.5t-22.5 -71.5zM608 348q10 54 34.5 106.5t62 93t87 66t109.5 25.5t102 -26t66.5 -67.5t33 -93.5t1.5 -104l-13 -78q-10 -54 -34.5 -106.5t-61.5 -93 t-86.5 -66t-109.5 -25.5t-102.5 26t-67 67t-33 93t-1.5 105zM690 270q-5 -33 -3.5 -69t13.5 -66t37 -49.5t67 -19.5q41 0 73.5 18.5t56 48t38.5 66t22 71.5l15 78q5 33 3.5 68.5t-13.5 65.5t-36.5 49.5t-66.5 19.5t-74 -18t-55.5 -47.5t-39 -65.5t-22.5 -72zM274 160l-72 49 l764 1083l70 -46z" />
<glyph unicode="&#x26;" d="M434 793q-21 40 -40 82t-32.5 85t-19.5 88t-2 92q6 72 34 134t73.5 108t107.5 71.5t137 24.5q58 -2 105 -24t80 -60t49.5 -88t12.5 -107q-4 -53 -25.5 -97.5t-53.5 -83t-71 -71.5t-78 -63l-137 -104l283 -465q57 76 92.5 159.5t52.5 176.5h107q-16 -121 -63.5 -227.5 t-129.5 -198.5l136 -225h-132l-85 140q-82 -70 -177.5 -115.5t-205.5 -43.5q-81 1 -149.5 28.5t-117.5 76t-73.5 117t-17.5 151.5q6 73 36.5 135.5t75.5 115.5t101 97t113 82zM456 81q95 -2 175.5 39t149.5 102l-288 479l-8 12l-40 -32q-38 -30 -77 -65.5t-71 -77 t-54.5 -87.5t-28.5 -97q-6 -59 9 -108.5t47.5 -85.5t80 -56.5t105.5 -22.5zM458 1142q-8 -75 14 -144.5t55 -134.5l141 108q28 21 54 46t47.5 53.5t35.5 60.5t18 69q3 33 -4.5 64.5t-25.5 56t-45 39.5t-63 16q-49 1 -89 -18.5t-69 -52.5t-46.5 -75.5t-22.5 -87.5z" />
<glyph unicode="'" d="M734 1389l-64 -299h-95l53 305l23 141h106z" />
<glyph unicode="(" d="M367 585q15 96 40.5 197.5t62 201t85 194.5t109.5 179.5t136 154.5t165 121l21 -82q-115 -80 -199.5 -190.5t-144 -238t-97 -264t-58.5 -268.5l-3 -20q-11 -74 -18.5 -159t-6.5 -174t12.5 -178.5t37 -171.5t68 -154t105.5 -125l-34 -77q-74 57 -127.5 132.5t-89 162.5 t-55 182.5t-26.5 192t-3 190t17 178.5z" />
<glyph unicode=")" d="M795 576q-15 -96 -40 -196.5t-61 -199.5t-83.5 -194t-108 -179.5t-134 -156t-161.5 -123.5l-27 82q114 79 197.5 190.5t143 239.5t96.5 265t58 268l3 20q11 73 18.5 158t6 174t-12.5 179t-37 172.5t-68 154t-105 124.5l35 77q73 -57 126.5 -132.5t89 -162.5t55 -182.5 t26.5 -192.5t2.5 -191t-16.5 -178z" />
<glyph unicode="*" d="M590 856l-357 111l52 109l348 -143l54 409h117l-82 -406l382 144l20 -118l-395 -116l212 -323l-103 -67l-183 341l-280 -337l-89 73z" />
<glyph unicode="+" d="M679 740h431l-21 -117h-430l-84 -477h-119l83 477h-421l21 117h420l82 466h119z" />
<glyph unicode="," d="M488 36q-17 -99 -65.5 -182t-123.5 -149l-72 50q51 62 85 130t48 147l27 156h126z" />
<glyph unicode="-" horiz-adv-x="1203" d="M942 601h-721l18 101h722z" />
<glyph unicode="." d="M436 83q1 21 9.5 39.5t22.5 33t32.5 23t39.5 8.5t39.5 -7.5t31.5 -21t20 -32t6 -39.5q-2 -43 -32.5 -71t-72.5 -29q-21 0 -39 7t-31 19.5t-20 30.5t-6 39z" />
<glyph unicode="/" d="M257 -125h-116l864 1581h117z" />
<glyph unicode="0" d="M1042 577q-12 -72 -33 -145t-52.5 -140t-74.5 -125t-99 -100.5t-125 -65.5t-153 -21q-80 2 -140 28.5t-102.5 71t-68.5 103t-39 124t-13.5 134.5t8.5 135l49 303q12 71 33 144t53 140t75 125t99 101t125 66.5t153 21.5q81 -2 141 -28.5t102 -71t68 -103.5t38.5 -124.5 t13 -135t-8.5 -135.5zM263 558q-5 -20 -8 -39t-7 -39l741 597q-4 59 -20.5 112t-48 94t-78.5 65.5t-112 26.5q-66 2 -119 -17.5t-95.5 -54t-75 -81.5t-56 -100.5t-38.5 -110.5t-24 -112zM979 899q4 16 6.5 32t5.5 33l-738 -596q5 -57 22.5 -108.5t49 -90.5t77.5 -62.5 t109 -25.5q99 -3 170 40t119.5 113t77 155.5t41.5 168.5z" />
<glyph unicode="1" d="M617 0h-119l226 1301l-422 -172l22 119l522 208h20z" />
<glyph unicode="2" d="M919 0h-888l15 97l543 536q46 46 96.5 96t94.5 105.5t75.5 117.5t39.5 131q7 61 -7.5 113.5t-47 91.5t-81.5 62t-112 25q-77 2 -139 -24t-108 -72.5t-76 -109t-43 -132.5l-117 -1q13 94 55 175.5t106 140.5t147.5 92.5t181.5 31.5q84 -2 154 -31t119 -80t72.5 -122.5 t15.5 -156.5q-8 -81 -43 -153.5t-85.5 -137.5t-109.5 -123.5t-114 -111.5l-467 -459h740z" />
<glyph unicode="3" d="M423 793l112 -1q67 0 132.5 18.5t119 55t89 91t43.5 127.5q7 63 -6.5 115.5t-45 91t-80.5 60.5t-112 24q-71 2 -130.5 -19.5t-106 -61.5t-78 -96t-45.5 -123l-117 -1q14 90 57 165t106.5 128.5t145 82.5t173.5 27q86 -2 156 -32t117.5 -82t70 -124t14.5 -159 q-6 -65 -33 -117.5t-68 -94.5t-93 -73t-109 -53q111 -41 165 -130.5t44 -207.5q-8 -97 -50.5 -176.5t-109 -135t-152.5 -85t-181 -27.5q-90 2 -165 33t-127.5 85.5t-79 130t-20.5 166.5h117q-5 -68 12.5 -124.5t54.5 -98t91 -65.5t123 -26q73 -2 137 20t113 64t80 101.5 t39 133.5q7 72 -13 126t-60.5 89.5t-98 54t-124.5 20.5l-126 1z" />
<glyph unicode="4" d="M840 469h222l-18 -101h-221l-64 -368h-119l65 368h-662l9 68l826 1020h134zM204 469h518l144 824l-68 -92z" />
<glyph unicode="5" d="M275 749l193 707h710l-21 -116h-606l-139 -487q61 40 130 60.5t143 18.5q97 -2 166.5 -41.5t112.5 -103.5t60 -146t8 -170q-10 -101 -47.5 -191.5t-100 -158t-149.5 -106.5t-195 -36q-89 2 -158 33.5t-117 85.5t-73.5 127t-25.5 159h114q1 -64 17.5 -118.5t49.5 -95 t83 -64.5t118 -26q84 -2 148.5 30.5t109.5 87t71.5 126t34.5 146.5q7 66 -4 128.5t-42 111.5t-83 79.5t-125 33.5q-83 3 -152 -24.5t-133 -78.5z" />
<glyph unicode="6" d="M971 1468l-12 -109h-16q-138 0 -244.5 -46t-186.5 -125t-135.5 -185.5t-90.5 -228.5q69 85 165 134.5t208 47.5q96 -2 165 -44t111.5 -108t59 -150t7.5 -170q-9 -96 -46.5 -188t-100 -163t-147.5 -113t-190 -40q-107 2 -185 50t-126 123.5t-67 170t-8 190.5l18 129 q16 110 48.5 213.5t81 195t114.5 167.5t149.5 131.5t185 86t221.5 31.5h21zM634 853q-54 2 -112.5 -15.5t-110.5 -50.5t-91.5 -78.5t-55.5 -100.5l-12 -97q-5 -47 -2.5 -97t13.5 -97.5t32 -89.5t52.5 -74.5t75 -51.5t100.5 -20q53 -1 99.5 15t85 44.5t69 67.5t52.5 83.5 t36 92.5t19 96q7 65 -3 130.5t-40 118.5t-81 87.5t-126 36.5z" />
<glyph unicode="7" d="M1174 1387l-818 -1387h-129l811 1349h-801l17 107h928z" />
<glyph unicode="8" d="M1119 1090q-6 -65 -31.5 -118.5t-64.5 -96.5t-90 -76t-108 -56q52 -23 93 -59t68 -81t39 -97.5t8 -110.5q-8 -99 -52.5 -177t-114 -131.5t-157.5 -81t-182 -25.5q-87 2 -162.5 30t-129.5 79t-81.5 123.5t-19.5 164.5q6 72 34.5 130.5t73 105t101.5 81t121 57.5 q-45 24 -79 58t-56 75.5t-31.5 89t-5.5 98.5q7 92 46.5 167.5t102.5 129t144.5 81.5t171.5 26q83 -2 152.5 -30.5t118.5 -79.5t73.5 -121t17.5 -155zM914 394q7 65 -11.5 120t-56 95t-91.5 63t-118 25q-71 1 -137 -21.5t-118 -65t-86.5 -102.5t-41.5 -132q-7 -67 11 -121 t56 -92.5t92 -60t119 -22.5q71 -2 136.5 19.5t117.5 62.5t86 100t42 132zM999 1091q6 58 -10 109.5t-49 89.5t-81.5 60.5t-107.5 24.5q-66 1 -125 -21t-105 -62.5t-75 -96.5t-36 -122q-6 -59 10 -109t48.5 -86.5t80.5 -58t107 -22.5q65 -2 124 19.5t105.5 60.5t76.5 94 t37 120z" />
<glyph unicode="9" d="M288 96q140 1 245.5 44.5t183 121t128.5 184t83 232.5q-69 -94 -165 -149t-215 -52q-96 3 -164.5 46.5t-110.5 111.5t-58 153t-8 170q7 65 26 129.5t50.5 122.5t73.5 107.5t95 85t115.5 55.5t134.5 19q79 -2 139.5 -27t104.5 -67.5t72 -99t43 -120.5t17 -133t-6 -135 l-16 -116q-24 -163 -81 -306.5t-152 -251t-229.5 -170t-312.5 -63.5h-30l12 108h25zM568 580q57 -2 117.5 18t113.5 55.5t93 84.5t56 106l8 62q5 47 5 100t-8.5 104.5t-26.5 98.5t-48.5 83.5t-75 58.5t-104.5 23q-82 1 -147.5 -35.5t-113 -96t-76 -133t-36.5 -146.5 q-7 -63 2.5 -130t38 -122.5t78.5 -92t124 -38.5z" />
<glyph unicode=":" d="M488 83q1 21 9.5 39.5t22.5 33t32.5 23t39.5 8.5t39.5 -7.5t31.5 -21t20 -32t6 -39.5q-2 -43 -32.5 -71t-72.5 -29q-21 0 -39 7t-31 19.5t-20 30.5t-6 39zM640 959q1 21 9.5 39.5t22.5 33t32.5 23t39.5 8.5t39.5 -7.5t31.5 -21t20 -32t6 -39.5q-2 -43 -32.5 -71 t-72.5 -29q-21 0 -39 7t-31 19.5t-20 30.5t-6 39z" />
<glyph unicode=";" d="M636 959q1 21 9.5 39.5t22.5 33t32.5 23t39.5 8.5t39.5 -7.5t31.5 -21t20 -32t6 -39.5q-2 -43 -32.5 -71t-72.5 -29q-21 0 -39 7t-31 19.5t-20 30.5t-6 39zM627 36q-17 -99 -65.5 -182t-123.5 -149l-72 50q51 62 85 130t48 147l27 156h126z" />
<glyph unicode="&#x3c;" d="M303 653l649 -300l-22 -121l-768 380l17 96l900 379l-24 -132z" />
<glyph unicode="=" d="M1072 812h-868l19 106h868zM1001 401h-868l19 106h868z" />
<glyph unicode="&#x3e;" d="M901 663l-662 302l21 118l785 -379l-17 -96l-917 -379l24 129z" />
<glyph unicode="?" d="M494 403q9 59 25 106.5t41 88.5t60 78t80 74q43 36 86.5 74.5t79.5 82.5t61 94.5t32 109.5q6 56 -5.5 103t-39.5 81.5t-71.5 54t-100.5 21.5q-62 2 -114.5 -15.5t-94 -51t-70.5 -81.5t-42 -106h-118q15 83 54.5 150.5t98 114.5t133.5 71.5t160 22.5q79 -2 143.5 -29 t109 -74.5t65 -114t13.5 -146.5q-7 -74 -36.5 -136t-73 -115.5t-97 -100t-108.5 -88.5q-68 -53 -104.5 -118.5t-51.5 -149.5zM409 72q3 35 28.5 59.5t60.5 25.5q18 0 33 -6.5t26 -18t16.5 -27t4.5 -33.5q-2 -35 -28.5 -57.5t-61.5 -23.5t-58 22.5t-21 58.5z" />
<glyph unicode="@" d="M1164 780q-7 -42 -18 -94t-28.5 -106t-42 -105.5t-57.5 -91.5t-76.5 -63.5t-98.5 -22.5q-36 1 -62.5 14.5t-43.5 36.5t-25 52.5t-9 62.5q-20 -28 -43 -57.5t-50.5 -54t-60 -39.5t-70.5 -15q-43 0 -71 21t-44.5 54t-22.5 74.5t-6.5 84t4 81t9.5 66.5q9 50 25 106.5 t39.5 111t56 104t74 86.5t93 58t113.5 19q54 -2 94.5 -27.5t76.5 -63.5l-2 -1l-124 -506q-4 -22 -6.5 -53t2 -60t20 -50.5t48.5 -22.5q40 -2 71.5 19.5t55 57t40 80t28 89.5t18.5 86t11 69q9 61 13 128t-2 132t-24 124.5t-53.5 105t-90.5 73.5t-135 30q-92 2 -170.5 -26.5 t-143.5 -80t-117 -121t-90.5 -147.5t-65 -160.5t-39.5 -160.5q-12 -70 -15.5 -141.5t6 -137.5t33.5 -123.5t66.5 -100.5t105 -68t149.5 -26q68 0 133 20t125 52l19 -82q-62 -41 -134.5 -61t-146.5 -19q-101 1 -176 29t-127.5 76t-84.5 113.5t-46 141.5t-12.5 159.5 t15.5 168.5q15 90 45.5 184.5t75.5 182.5t105 165.5t135 134.5t164.5 89t194.5 30q93 -2 160 -33t112 -82.5t70.5 -119t35.5 -142.5t7 -154t-15 -153zM439 678q-3 -16 -7 -43.5t-6 -59t-0.5 -63.5t9.5 -58.5t24 -44t43 -18.5q37 -2 71.5 19t62.5 53t48.5 69.5t31.5 67.5 l115 442q-19 15 -38 23t-44 10q-50 3 -90.5 -14.5t-72.5 -49t-56.5 -73t-42 -86.5t-29.5 -90t-19 -84z" />
<glyph unicode="A" d="M845 406h-534l-196 -406h-125l713 1456h107l204 -1456h-115zM362 513h469l-101 761z" />
<glyph unicode="B" d="M83 0l253 1456l379 -1q82 -3 156.5 -27.5t129.5 -71t84.5 -115t21.5 -158.5q-5 -64 -30 -115t-63.5 -90.5t-89 -69t-106.5 -51.5q56 -18 99.5 -51t72 -78t41 -98.5t8.5 -111.5q-7 -98 -51.5 -175.5t-113.5 -131.5t-157 -82.5t-181 -28.5h-453zM324 700l-104 -596l323 -2 q70 1 134.5 23t116 62.5t85 98.5t41.5 130q6 61 -10 111.5t-49.5 87.5t-82.5 59t-109 25zM341 803l278 -2q65 0 128 18.5t114 54.5t85 89t42 123q7 65 -13 113.5t-58 81t-90.5 50t-111.5 19.5l-278 1z" />
<glyph unicode="C" d="M1032 443q-22 -96 -67.5 -181.5t-112 -149t-153.5 -99.5t-192 -33q-84 3 -147.5 32t-109 77.5t-74.5 112t-43.5 134t-16 144t8.5 142.5l34 211q13 75 36.5 152.5t59.5 149.5t83.5 135t108 109.5t134 72.5t160.5 24q100 -2 174 -40.5t123.5 -102t74 -147t25.5 -176.5h-117 q-2 68 -18 133t-49.5 116t-87.5 82.5t-131 33.5q-71 2 -129.5 -21t-106 -63.5t-83.5 -94.5t-63 -114.5t-45 -124t-28 -122.5l-36 -214q-8 -52 -9.5 -111.5t5.5 -118.5t25 -114t50.5 -97.5t81 -69.5t116.5 -29q84 -3 149.5 25.5t115.5 78.5t85.5 117t58.5 139z" />
<glyph unicode="D" d="M66 0l253 1456l335 -1q133 -4 229.5 -61.5t155 -149.5t80 -208t5.5 -237l-22 -143q-21 -131 -78 -250t-145 -209t-204.5 -143.5t-257.5 -53.5h-351zM421 1354l-218 -1253l217 -1q118 1 213.5 47.5t167 123.5t117.5 177t64 208l23 147q9 63 6.5 128t-17 125t-42.5 113 t-70.5 92.5t-99.5 64t-131 27.5z" />
<glyph unicode="E" d="M952 698h-623l-103 -594h718l-18 -104h-836l252 1456h833l-19 -105h-714l-95 -549h623z" />
<glyph unicode="F" d="M960 680h-624l-119 -680h-119l253 1456h838l-19 -105h-718l-98 -566h625z" />
<glyph unicode="G" d="M1000 174q-93 -101 -216.5 -149.5t-260.5 -43.5q-84 3 -149.5 32.5t-113.5 78t-79.5 112.5t-48.5 135t-20 146t7 146l33 204q13 75 37.5 152.5t61 149.5t85.5 134.5t110.5 108.5t136 72t161.5 24q93 -2 166 -36t123.5 -92.5t78 -136t28.5 -166.5h-115q-5 64 -24 122.5 t-53.5 103t-86.5 71.5t-123 29t-130 -20.5t-107.5 -62t-86 -92.5t-66 -113t-47.5 -123.5t-29 -122.5l-34 -207q-8 -55 -8 -115.5t9.5 -120t30.5 -113.5t56 -96.5t85.5 -69t118.5 -30.5q100 -5 192 24t162 102l64 376h-335l19 104h446z" />
<glyph unicode="H" d="M934 0h-112l121 698h-660l-122 -698h-112l253 1456h112l-114 -654h661l114 654h112z" />
<glyph unicode="I" d="M335 1456h820l-19 -108h-354l-215 -1242h354l-19 -106h-820l19 106h343l215 1242h-344z" />
<glyph unicode="J" d="M1022 1456h122l-174 -1014q-15 -96 -59.5 -181t-112 -148t-155 -99t-188.5 -34q-94 1 -166 35t-120 92t-72 136t-22 168l120 -1q-4 -66 11 -124.5t48.5 -103t85.5 -71t123 -27.5q77 -2 142 27t115 79t83 115.5t45 136.5z" />
<glyph unicode="K" d="M518 719l-220 -202l-89 -517h-121l254 1456h120l-136 -771l227 222l552 549h157l-655 -653l432 -803h-135z" />
<glyph unicode="L" d="M245 104h720l-19 -104h-838l253 1456h119z" />
<glyph unicode="M" d="M459 1456l140 -820l444 820h158l-253 -1456h-117l113 648l119 632l-455 -842h-78l-144 843l-102 -639l-111 -642h-117l253 1456h150z" />
<glyph unicode="N" d="M934 0h-115l-435 1231l-215 -1231h-118l253 1456h114l435 -1229l215 1229h118z" />
<glyph unicode="O" d="M1078 632q-13 -74 -36 -152t-58 -151t-81.5 -137.5t-106.5 -112.5t-133.5 -75t-160.5 -24q-83 2 -146 32.5t-108 80t-73.5 114.5t-42.5 136.5t-15 145.5t9 142l31 192q12 74 35.5 151.5t58.5 151t82 138t107 112.5t133.5 75t160.5 25q84 -2 147 -32.5t108 -80.5t73 -115 t41.5 -137t14 -146t-8.5 -142zM992 827q7 51 9 110.5t-5 119t-24.5 115t-49.5 98.5t-80 70t-116 29q-71 2 -128.5 -21.5t-104.5 -64.5t-83 -96t-62.5 -116.5t-44.5 -124.5t-28 -121l-32 -195q-7 -51 -9 -110.5t5 -119t25 -115.5t50 -99t80 -70t116 -29q71 -3 129 20.5 t105 64.5t82.5 96t62 116t44 125t27.5 122z" />
<glyph unicode="P" d="M328 600l-105 -600h-119l253 1456l438 -1q89 -3 162.5 -36t124.5 -88.5t76 -132t17 -166.5q-9 -101 -54 -181t-115 -136t-158.5 -86t-185.5 -30zM345 701l321 -2q74 0 141 23.5t119.5 67t86.5 104.5t43 137q7 66 -8 123t-49.5 100t-87 69.5t-119.5 29.5l-334 1z" />
<glyph unicode="Q" d="M1103 641q-14 -87 -41.5 -171.5t-70 -160.5t-101.5 -141t-135 -113l201 -239l-89 -70l-222 256q-35 -10 -70.5 -15.5t-72.5 -4.5q-85 1 -150 31t-112 80t-77 115.5t-45 138.5t-16.5 148t8.5 145l28 174q13 76 37.5 155.5t61 154t86 139.5t112 113t138 75t164.5 25 q86 -2 151.5 -32.5t112.5 -80.5t77 -115.5t45 -138.5t16.5 -149t-8.5 -146zM1013 817q8 54 9.5 115.5t-6.5 122t-27.5 116t-53 99t-84 70t-120.5 28.5q-73 2 -133.5 -21t-109.5 -64t-87.5 -96.5t-66.5 -117.5t-47 -127t-30 -126l-29 -177q-8 -54 -9.5 -115t7 -122t28 -117 t53.5 -99.5t84 -70t120 -28.5q74 -2 134.5 21t109.5 64t87 96.5t66 117.5t46.5 127.5t29.5 126.5z" />
<glyph unicode="R" d="M666 609h-350l-106 -609h-118l253 1456l392 -1q90 -3 165 -35t127 -86.5t78 -130.5t17 -168q-7 -77 -36.5 -139t-75.5 -111.5t-106 -86.5t-128 -64l216 -621l-2 -13h-124zM333 710l301 -2q70 1 134 25.5t114 68t82.5 103.5t40.5 131q7 67 -9 124t-52 99t-89.5 66.5 t-120.5 27.5l-289 1z" />
<glyph unicode="S" d="M921 366q5 47 -5 85t-30.5 68.5t-50 55t-64 44t-72 35.5t-74.5 30q-70 26 -139 60.5t-123 83t-85.5 113.5t-25.5 151q4 61 26.5 114t58.5 96t82.5 76t99.5 55.5t110.5 33t114.5 9.5q90 -2 165.5 -35t128.5 -89.5t80.5 -133t23.5 -166.5h-119q-1 66 -19.5 123t-54 100 t-88.5 68.5t-122 27.5q-63 2 -125.5 -16t-113.5 -53.5t-85.5 -88t-40.5 -119.5t19 -115.5t68 -83.5t97.5 -59t107.5 -43q73 -26 144 -62.5t125 -87.5t85 -119t24 -156q-5 -64 -27.5 -118t-59 -97.5t-84.5 -76t-102.5 -54.5t-113.5 -32.5t-118 -9.5q-93 1 -174.5 31.5 t-141 86t-92 133.5t-28.5 174h118q1 -73 24.5 -131.5t65.5 -100t101 -65t132 -24.5q66 -2 130.5 15.5t117 53t87.5 89t42 124.5z" />
<glyph unicode="T" d="M1236 1351h-449l-235 -1351h-116l235 1351h-451l19 105h1016z" />
<glyph unicode="U" d="M1189 1456l-167 -985q-15 -98 -59 -187.5t-111.5 -158t-156 -108t-193.5 -37.5q-99 2 -173 44.5t-121.5 110.5t-67 154.5t-9.5 178.5l171 988h112l-166 -988q-8 -68 3 -135t42.5 -121.5t85 -89.5t130.5 -38q81 -3 148 29.5t117.5 87.5t83 125t45.5 144l171 986h115z" />
<glyph unicode="V" d="M524 185l583 1271h130l-681 -1456h-111l-225 1456h122z" />
<glyph unicode="W" d="M296 326l-7 -81l25 89l380 1122h104l30 -1131l-5 -86l23 94l320 1123h113l-427 -1456h-118l-24 1206l-404 -1206h-119l29 1456h111z" />
<glyph unicode="X" d="M643 836l455 620h146l-543 -724l322 -732h-132l-269 640l-471 -640h-146l560 744l-312 712h133z" />
<glyph unicode="Y" d="M590 665l514 791h141l-615 -915l-96 -541h-112l95 556l-293 900h130z" />
<glyph unicode="Z" d="M185 104h768l-17 -104h-905l14 99l934 1252h-716l17 105h856l-13 -94z" />
<glyph unicode="[" d="M926 1562h-224l-277 -1772h224l-16 -102h-338l309 1976h338z" />
<glyph unicode="\" d="M398 1456h107l316 -1581h-107z" />
<glyph unicode="]" d="M582 1664h339l-309 -1976h-339l17 102h222l277 1772h-223z" />
<glyph unicode="^" d="M366 667h-121l453 789h89l177 -789h-109l-135 626l-1 6l-1 -7z" />
<glyph unicode="_" d="M902 -101h-857l18 101h857z" />
<glyph unicode="`" d="M848 1232h-95l-170 266h134z" />
<glyph unicode="a" d="M810 0q-5 39 -3.5 77.5t7.5 78.5q-78 -82 -179 -130t-217 -46q-65 2 -122.5 23t-100 59.5t-65.5 93t-19 123.5t30 122t67 92t94.5 65.5t112.5 42t120 22.5t119 7l233 -1l18 124q6 59 -10 104.5t-49 77t-80 48.5t-103 19q-55 1 -107 -12t-95 -40.5t-75 -69t-46 -96.5h-117 q13 80 57 140t106 100t137 59.5t151 18.5q78 -2 145.5 -26t115.5 -69t72.5 -109.5t16.5 -147.5l-87 -524q-9 -55 -7 -107t4 -106l-1 -13h-123zM436 86q61 -2 118 12t107.5 42t93.5 68.5t76 90.5l41 238l-203 1q-43 0 -90.5 -3.5t-94.5 -13.5t-91 -28t-78.5 -45.5t-57 -66.5 t-27.5 -92q-5 -48 10.5 -85t44 -63t68 -40t83.5 -15z" />
<glyph unicode="b" d="M1029 536q-9 -66 -28 -134t-49 -130.5t-70.5 -116.5t-92.5 -94t-116.5 -62t-140.5 -20q-93 2 -172 44t-127 122l-34 -145h-111l266 1536h120l-113 -605q64 81 148.5 127.5t189.5 43.5q73 -2 128.5 -26.5t94.5 -65t64 -93.5t37.5 -113t14 -123.5t-5.5 -123.5zM912 557 q6 46 6.5 96.5t-6.5 98.5t-23.5 92t-45.5 77.5t-71 54t-101 22.5q-56 2 -104.5 -14t-89.5 -45t-75 -68.5t-60 -84.5l-85 -507q29 -88 97 -140.5t162 -55.5q62 -2 113.5 16.5t92.5 51t72.5 77t54.5 95.5t37.5 105.5t22.5 107.5z" />
<glyph unicode="c" d="M524 81q61 -2 116 15.5t100 50.5t77.5 80t48.5 106h113q-15 -81 -58.5 -147t-105.5 -112.5t-139 -71t-158 -22.5q-74 2 -133 24t-103 60t-73.5 89t-46 110t-21 124t2.5 130l5 43q9 70 31 138t56 129t80 112.5t102.5 88t123.5 56.5t144 18q83 -2 150.5 -31.5t115 -81 t72.5 -121.5t22 -152l-114 1q3 59 -13.5 110t-49 89t-80.5 60.5t-109 24.5q-92 3 -164 -35.5t-124 -101.5t-83.5 -143t-42.5 -161l-5 -42q-9 -73 -2 -149.5t36 -139.5t84.5 -104t144.5 -44z" />
<glyph unicode="d" d="M143 545q9 67 28.5 134.5t49.5 130.5t71.5 117t94.5 94t117.5 61.5t141.5 19.5q92 -2 167.5 -44.5t121.5 -123.5l108 602h118l-266 -1536h-112l27 140q-65 -77 -149.5 -120t-187.5 -40q-71 2 -125.5 27t-93.5 65.5t-64.5 94t-38.5 113.5t-15.5 122.5t4.5 121.5zM260 524 q-6 -46 -6 -96t7.5 -98t24 -91.5t45 -77t70 -54.5t99.5 -23q52 -2 99 11.5t87.5 38t75 59.5t62.5 77l89 526q-14 43 -37.5 80t-55.5 63.5t-72 42t-87 17.5q-63 2 -114.5 -16.5t-93 -51t-74 -77t-55.5 -95.5t-38.5 -106t-22.5 -108z" />
<glyph unicode="e" d="M539 -20q-109 3 -190 48t-132.5 118t-73.5 167t-12 194l5 44q9 69 32.5 137t59.5 130t84 115t106.5 91t126.5 59t143 19q103 -3 176 -46t117.5 -112t61 -157t6.5 -181l-9 -73h-786l-5 -24q-11 -76 2.5 -151t51.5 -135.5t99.5 -99t145.5 -41.5q99 -4 181.5 36t151.5 108 l71 -57q-78 -94 -185 -142.5t-228 -46.5zM682 1000q-81 3 -147 -28t-117.5 -82.5t-88.5 -118.5t-60 -136l663 -1l3 15q9 64 -3 126t-44.5 111.5t-84.5 80.5t-121 33z" />
<glyph unicode="f" horiz-adv-x="1203" d="M1065 984h-417l-170 -984h-123l172 984h-286l17 98h286l12 86q14 97 53.5 172.5t101 126.5t142.5 76.5t179 24.5q56 -1 110 -9t108 -20l-27 -101q-90 25 -185 27q-74 1 -135.5 -17.5t-108 -55.5t-76.5 -93t-42 -130l-13 -87h420z" />
<glyph unicode="g" d="M145 545q9 67 28.5 134.5t49.5 130t70.5 117t93.5 94.5t117.5 62t141.5 20q94 -3 170 -46.5t122 -124.5l35 150h112l-182 -1063q-15 -96 -55.5 -179t-103.5 -144.5t-147 -95.5t-186 -31q-52 1 -101.5 14.5t-94 37.5t-82.5 58.5t-66 78.5l73 70q48 -70 115 -113.5 t154 -45.5q79 -2 142 24t110.5 73t78 110.5t44.5 136.5l25 123q-66 -74 -150 -116t-185 -40q-71 2 -125.5 26.5t-93.5 65.5t-64 94t-38.5 113t-15.5 122.5t5 121.5zM261 524q-6 -46 -6 -96t7.5 -98t24 -92t45 -77.5t70.5 -54t100 -22.5q52 -2 99 12t88 39.5t75.5 61.5 t61.5 78l88 517q-14 45 -37 82t-55 64.5t-72.5 43t-88.5 17.5q-63 2 -114.5 -16.5t-93 -51.5t-73.5 -77.5t-55 -95.5t-38 -105.5t-23 -107.5z" />
<glyph unicode="h" d="M346 873q34 50 75.5 92.5t91 73t105.5 47.5t119 16q89 -2 149.5 -36.5t96 -91t47 -130t2.5 -153.5l-116 -691h-119l116 692q7 60 0 114.5t-31.5 96.5t-68.5 67t-111 27q-61 1 -115 -17t-101 -50.5t-85.5 -76.5t-68.5 -93l-131 -760h-119l267 1536h119z" />
<glyph unicode="i" d="M297 1082h490l-170 -976h358l-19 -106h-847l19 106h370l151 869h-371zM685 1376q2 40 27 66.5t66 27.5q40 1 64 -25t22 -65t-28 -64.5t-65 -26.5q-40 -1 -64 23.5t-22 63.5z" />
<glyph unicode="j" d="M375 1082h497l-185 -1082q-14 -95 -50.5 -175.5t-95 -139.5t-139 -92t-180.5 -33q-51 0 -102 5t-102 13l17 100q45 -7 91 -10.5t92 -3.5q78 -1 138.5 24t104.5 70t70.5 107t37.5 135l165 975h-379zM767 1377q2 40 26 66t65 27t65 -24t22 -65t-28 -65t-65 -26 q-40 -1 -63.5 23.5t-21.5 63.5z" />
<glyph unicode="k" d="M471 545l-176 -140l-71 -405h-120l267 1536h120l-171 -980l141 120l494 406h162l-555 -461l405 -621h-141z" />
<glyph unicode="l" d="M376 1536h491l-248 -1430h356l-19 -106h-847l19 106h372l229 1323h-372z" />
<glyph unicode="m" d="M276 1083l-26 -121q44 66 104.5 104t141.5 37q71 -1 123.5 -36t66.5 -107q46 64 108.5 103.5t144.5 38.5q64 -1 105.5 -27t64.5 -68t30 -95t1 -108l-137 -804h-111l134 805q4 35 1 70t-16.5 62.5t-39.5 44.5t-69 17q-38 0 -72.5 -12.5t-62.5 -35t-48 -53t-29 -67.5 l-143 -831h-111l136 816q3 35 -0.5 68t-17.5 58.5t-40 41t-67 15.5q-38 0 -72.5 -12.5t-62 -35.5t-47.5 -54t-29 -68l-143 -829h-112l188 1082z" />
<glyph unicode="n" d="M380 1082l-34 -203q34 49 75.5 90.5t90.5 71.5t104.5 46t117.5 15q88 -2 149 -36.5t96 -90.5t47 -129t3 -153l-116 -693h-119l116 692q7 60 0.5 114.5t-30.5 96.5t-68.5 67.5t-112.5 27.5q-62 1 -116.5 -18.5t-101 -53t-84.5 -78.5t-66 -96l-130 -752h-119l188 1082h110z " />
<glyph unicode="o" d="M119 550q9 71 32 140t58 131t82.5 114.5t105.5 90t126 58t146 18.5q74 -2 133.5 -24.5t105 -60.5t77 -90t49.5 -111.5t23.5 -124.5t-1.5 -131l-4 -34q-14 -107 -58.5 -206.5t-115 -176t-166 -121.5t-210.5 -42q-110 3 -188.5 50t-126 122.5t-65.5 171t-7 193.5zM234 516 q-8 -73 1 -149t41 -139t88.5 -104t143.5 -44q92 -3 166 36t128 103t87 145t45 163l4 32q8 73 -1 150t-41 141t-89 106t-144 45q-93 3 -166.5 -37t-127.5 -104.5t-87 -146.5t-44 -163z" />
<glyph unicode="p" d="M1025 536q-9 -66 -28 -134t-48.5 -130.5t-70 -116.5t-93 -94t-116.5 -62t-141 -20q-90 2 -168.5 40t-128.5 113l-99 -548h-119l260 1498l111 1l-28 -148q65 78 150 123.5t190 43.5q73 -2 128 -26t94.5 -64.5t64 -94t37 -113t14 -123t-5.5 -123.5zM909 558q6 46 6 96 t-8 98.5t-25 92t-46.5 77t-72 54t-100.5 22.5q-53 2 -99.5 -12.5t-87 -41.5t-74 -64t-60.5 -80l-91 -539q32 -83 99 -131t157 -50q62 -2 114 16.5t93.5 51.5t74 78t56 96t38.5 106t23 108z" />
<glyph unicode="q" d="M144 545q9 67 28.5 135.5t49.5 131t71.5 116.5t94.5 93.5t118 61t143 19.5q91 -2 166 -43.5t122 -119.5l35 143h112l-261 -1498h-119l102 546q-66 -72 -149 -112t-181 -38q-72 2 -127 26.5t-94.5 65t-64.5 94t-38.5 113t-15.5 122.5t5 123zM261 523q-6 -46 -6 -95.5 t7.5 -98t24.5 -93t45.5 -78.5t70.5 -54.5t100 -22.5q51 -2 96.5 11t85.5 37t74.5 58t62.5 73l94 548q-15 42 -39.5 76.5t-56.5 60t-71 40t-85 16.5q-63 2 -114.5 -16.5t-93.5 -51.5t-74 -77.5t-56 -96t-39 -106.5t-23 -108z" />
<glyph unicode="r" d="M961 1103q85 0 164 -22l-29 -114q-40 8 -80 13.5t-81 6.5q-71 1 -142.5 -18t-133 -56.5t-108.5 -93t-68 -128.5l-117 -691h-123l188 1082h115l-31 -186l-6 -24q82 111 197 172t255 59z" />
<glyph unicode="s" d="M868 282q6 55 -18.5 92t-65 62t-89 40t-89.5 25q-39 10 -81 22t-82.5 29t-76 39t-62 52t-41 68.5t-11.5 88.5q3 53 23.5 96t53 77t74.5 58.5t89 40.5t95.5 23.5t94.5 6.5q74 -1 142.5 -21.5t120.5 -60.5t82.5 -100.5t29.5 -141.5l-118 1q2 55 -20 96t-58.5 68.5 t-84.5 41.5t-98 15q-47 1 -98.5 -9.5t-96 -33.5t-75.5 -61t-37 -92t18.5 -89t64.5 -57.5t87.5 -35t88.5 -22.5q40 -10 83 -22.5t83.5 -30.5t76.5 -41.5t62 -55t40 -71.5t11 -90q-3 -56 -24.5 -101t-55 -79.5t-78 -59.5t-93 -40.5t-100 -22.5t-99.5 -6q-74 1 -146 20.5 t-128.5 59.5t-91 100.5t-33.5 143.5h118q2 -60 26.5 -102t64 -68.5t90 -39t104.5 -13.5q48 0 103 9.5t102.5 33t81.5 62.5t41 96z" />
<glyph unicode="t" d="M708 1359l-49 -277h390l-18 -98h-388l-114 -682q-11 -101 35.5 -157t148.5 -59q48 -2 95 4.5t94 14.5l9 -92q-54 -19 -110.5 -26.5t-113.5 -5.5q-74 1 -129 25t-90.5 66t-50.5 101t-9 131l113 680h-292l18 98h291l49 277h121z" />
<glyph unicode="u" d="M823 169q-68 -91 -160.5 -141.5t-207.5 -47.5q-92 2 -153 40t-95 99t-43.5 138.5t-0.5 158.5l112 666h118l-112 -669q-7 -58 -3.5 -116t24.5 -104.5t62.5 -76.5t111.5 -32q55 -2 112.5 12.5t108 44t89 73t55.5 100.5l130 768h121l-189 -1082h-111z" />
<glyph unicode="v" d="M519 162v-22l10 22l504 920h129l-611 -1082h-97l-273 1082h116z" />
<glyph unicode="w" d="M272 353l-3 -185l67 177l306 737h85l51 -737l4 -184l67 194l269 727h114l-421 -1082h-97l-57 745v160l-61 -170l-310 -735h-97l-45 1082h108z" />
<glyph unicode="x" d="M608 642l394 440h151l-488 -536l326 -546h-132l-269 459l-414 -459h-149l507 556l-314 526h133z" />
<glyph unicode="y" d="M514 220l9 -59l540 921h140l-758 -1256q-30 -53 -67.5 -101.5t-83.5 -85t-101 -58t-121 -20.5q-26 0 -52.5 4.5t-52.5 11.5l26 98q20 -3 41 -6t42 -3q47 0 86.5 17t72.5 45.5t60 65t49 73.5l103 168l-287 1047l124 1z" />
<glyph unicode="z" d="M223 101h766l-16 -101h-925l16 93l849 886h-689l16 103h852l-16 -93z" />
<glyph unicode="{" d="M802 -403q-83 17 -142.5 61.5t-96.5 106.5t-50.5 137.5t-5.5 155.5l27 209q13 124 -41 196.5t-181 77.5l5 28h-2l4 27l3 23l5 28q134 3 215.5 71.5t100.5 202.5l28 211q12 91 45 168.5t86.5 138.5t126 102t164.5 59l13 -81q-74 -15 -128.5 -51t-92.5 -87t-61.5 -115 t-33.5 -134l-28 -210q-17 -128 -89 -209t-193 -123q51 -21 86 -54.5t56 -76t28.5 -92t2.5 -101.5l-27 -209q-7 -62 -1.5 -122t28 -111.5t64 -90t107.5 -56.5z" />
<glyph unicode="|" d="M501 -332h-101l280 1788h101z" />
<glyph unicode="}" d="M176 -325q70 16 124.5 52t94 86.5t63.5 113t35 131.5l28 208q17 128 89 209t192 123q-50 21 -85.5 54.5t-56.5 76t-28.5 91.5t-2.5 102l28 211q7 63 3.5 124t-24 113t-62 91t-109.5 57l24 77q84 -18 142.5 -62.5t93.5 -107t47.5 -138t3.5 -155.5l-27 -211 q-13 -124 41 -195t180 -77l-4 -28l1 -1l-3 -25l-2 -24l-4 -28q-135 -3 -217 -72.5t-101 -204.5l-27 -208q-13 -90 -46.5 -167.5t-87 -137.5t-126 -101t-163.5 -59z" />
<glyph unicode="~" d="M1155 746q-9 -62 -33 -121t-63 -104t-93.5 -72.5t-123.5 -26.5q-44 0 -83 12t-74 32.5t-67.5 46.5t-62.5 55q-22 21 -45.5 41.5t-49.5 36t-55 25.5t-61 10q-48 0 -85 -18.5t-63 -49.5t-42.5 -71t-25.5 -82l-92 8q9 63 33 121t63 102.5t93.5 71t123.5 25.5q43 0 82.5 -12 t75 -32t68 -46.5t62.5 -54.5q22 -21 45.5 -41.5t49.5 -37t54.5 -27t60.5 -10.5q48 0 85 20t63 52t43 73t25 83z" />
<glyph unicode="&#xa0;" />
<glyph unicode="&#xa1;" d="M550 654h119l-177 -1019h-119zM752 1020q-1 -17 -9 -32t-20 -26t-27.5 -18t-32.5 -7q-18 0 -33 6t-26 17.5t-16.5 26.5t-4.5 33q3 35 28.5 59t60.5 25q18 0 33 -6.5t26 -17.5t16.5 -26.5t4.5 -33.5z" />
<glyph unicode="&#xa2;" d="M529 81q61 -2 116 15.5t100 50.5t77.5 80t48.5 106h113q-14 -75 -52.5 -137.5t-94 -108t-124 -72.5t-142.5 -33l-40 -227h-120l41 233q-92 16 -154 67.5t-98.5 124t-48.5 160t-2 177.5l5 43q13 100 51.5 194t101 169t147.5 123t190 55l39 217h120l-40 -224 q67 -13 121.5 -46.5t92.5 -83t57.5 -112.5t16.5 -136l-114 1q3 59 -13.5 110t-49 89t-80.5 60.5t-109 24.5q-92 3 -164 -35.5t-124 -101.5t-83.5 -143t-42.5 -161l-5 -42q-9 -73 -2 -149.5t36 -139.5t84.5 -104t144.5 -44z" />
<glyph unicode="&#xa3;" d="M437 647l-38 -279q-11 -75 -37 -142.5t-76 -125.5l729 1l-19 -101h-967l18 100l90 -1q38 18 63.5 48t41 66t24.5 76t14 79l39 279h-182l18 101h179l38 290q12 90 49.5 170.5t96.5 140.5t138.5 94.5t175.5 32.5q84 -2 147.5 -32.5t105 -82.5t60 -122t12.5 -150h-119 q4 58 -6.5 109t-38 89.5t-72 61.5t-107.5 25q-71 2 -127 -26.5t-96.5 -76t-65.5 -109t-34 -124.5l-39 -290h334l-18 -101h-331z" />
<glyph unicode="&#xa4;" d="M851 114q-71 -62 -154 -99t-179 -35q-85 2 -160 36t-132 98l-150 -140l-72 92l157 143q-32 84 -42 171.5t2 176.5q14 106 58.5 199t113.5 174l-111 163l92 82l107 -152q69 56 148.5 89.5t170.5 31.5q81 -2 154 -33.5t128 -91.5l167 156l72 -94l-170 -157 q34 -85 45 -174.5t-2 -180.5q-14 -100 -54.5 -190.5t-104.5 -168.5l108 -156l-93 -82zM235 555q-7 -49 -4 -102.5t16 -104.5t36.5 -97t58.5 -81t81 -56t104 -23q94 -3 173 40t138 113t96 156.5t48 170.5q10 74 -2 154t-47.5 147.5t-95.5 112t-147 47.5q-94 3 -173 -39.5 t-138 -112t-96 -155.5t-48 -170z" />
<glyph unicode="&#xa5;" d="M615 735l535 721h145l-571 -751h355l-15 -87h-407l-36 -206h408l-16 -86h-407l-57 -326h-119l57 326h-402l15 86h401l37 206h-402l15 87h361l-309 751h128z" />
<glyph unicode="&#xa6;" d="M374 -270l135 771h119l-134 -771h-120zM661 698h-119l132 758h120z" />
<glyph unicode="&#xa7;" d="M1059 440q-5 -60 -28.5 -106t-60.5 -80.5t-84.5 -59t-99.5 -40.5q146 -105 132 -284q-5 -65 -28.5 -117.5t-60.5 -93.5t-85 -70.5t-102.5 -48.5t-113 -27.5t-116.5 -7.5q-98 2 -179.5 31.5t-138.5 84.5t-85.5 134.5t-20.5 180.5l118 2q-6 -76 13.5 -136.5t61 -103.5 t101.5 -66.5t135 -24.5q62 -2 126 12.5t118 46.5t91.5 82t45.5 119q5 44 -5.5 79t-32.5 62.5t-53 48t-66 37t-72 29t-71 23.5q-74 24 -148 54t-132.5 75.5t-92.5 110t-27 156.5q5 58 27.5 104t58 81.5t81.5 60.5t98 43q-69 52 -99.5 123t-23.5 157q5 64 28.5 116.5t61 93 t86 70.5t103 49.5t113 28t115.5 7.5q97 -2 174.5 -33t129 -87t76 -135t16.5 -176h-118q6 70 -10.5 129t-53 103t-92 69.5t-127.5 27.5q-63 2 -127.5 -12t-118.5 -46t-91 -82t-45 -120q-8 -69 18 -116t71 -79t102 -53t111 -38q48 -16 97.5 -33.5t95 -40.5t85.5 -52t68 -67 t42 -86t9 -109zM609 729q-32 10 -63.5 20.5t-63.5 21.5q-48 -8 -93 -24t-80.5 -43.5t-59.5 -66.5t-31 -92q-6 -49 6 -86.5t36 -66t58 -50t72.5 -38t78.5 -29t77 -24.5q29 -9 56.5 -18.5t55.5 -19.5q48 7 95.5 22.5t87 42t66.5 65.5t34 93q6 47 -6.5 83.5t-38 65.5t-60.5 51 t-74 39t-78.5 30t-74.5 24z" />
<glyph unicode="&#xa8;" d="M424 1396q1 16 8.5 31t19 26t26 18t31.5 7q34 0 57 -24t20 -58q-2 -33 -27 -56t-58 -24q-34 0 -56.5 23t-20.5 57zM849 1395q1 16 8 31t18.5 26t26.5 18t32 7q34 0 56.5 -24t20.5 -58q-2 -33 -27.5 -56t-57.5 -24q-34 0 -56.5 23t-20.5 57z" />
<glyph unicode="&#xa9;" d="M804 448q-9 -51 -31 -94t-55.5 -73.5t-78 -48t-98.5 -17.5q-62 0 -104 27t-66.5 69.5t-32.5 96t-1 106.5l10 67q9 55 32.5 108t60 94t85.5 66t110 26q53 0 93 -16.5t66.5 -46.5t37.5 -72.5t5 -93.5h-77q2 34 -3.5 62.5t-20.5 48.5t-41 31.5t-63 11.5q-45 0 -79.5 -19.5 t-59.5 -50.5t-41.5 -70t-23.5 -78l-11 -68q-5 -36 -3 -75t16 -71.5t41.5 -54t72.5 -22.5q38 -1 68 11t52 33t37.5 50.5t24.5 63.5zM146 546q-15 -92 2.5 -181t65.5 -159t123.5 -112.5t176.5 -42.5q102 0 191.5 41t160 110t117 158.5t62.5 185.5q15 92 -3.5 179t-67 155 t-124 109.5t-174.5 41.5q-101 0 -190 -40t-159.5 -106.5t-117.5 -154.5t-63 -184zM75 546q11 74 38.5 144t69 132t95 114t117 89t135.5 58t149 21q114 0 202.5 -47t146 -125t81 -178.5t7.5 -207.5q-11 -74 -38.5 -145t-68.5 -134t-94.5 -116t-117 -91t-135.5 -59.5 t-150 -21.5q-116 0 -204.5 48.5t-145.5 128t-80 181.5t-7 209z" />
<glyph unicode="&#xaa;" d="M812 704q-6 56 0 111q-50 -55 -113.5 -88.5t-139.5 -35.5q-48 0 -90.5 14.5t-72.5 42.5t-44 68.5t-6 91.5q10 65 45.5 109t85.5 71t109.5 39t116.5 13h156l13 61q6 36 2 68t-19 56t-42 38.5t-66 15.5q-77 2 -136 -33t-84 -108l-106 6q15 57 47 100.5t76.5 72.5t98 44 t110.5 15q61 0 107.5 -21.5t75.5 -58t40 -87t3 -109.5l-54 -314q-8 -46 -9 -90.5t5 -90.5zM585 786q34 1 68 10.5t65 26t57.5 39.5t45.5 51l26 145h-147q-37 -1 -77 -8.5t-75 -24t-61 -44t-35 -69.5q-7 -33 2 -57t28.5 -39.5t46.5 -22.5t56 -7z" />
<glyph unicode="&#xab;" d="M343 514l198 -382h-95l-225 378l2 19l348 380h113zM668 514l198 -382h-95l-225 378l2 19l348 380h113z" />
<glyph unicode="&#xac;" d="M943 386h-118l50 284h-672l19 106h789z" />
<glyph unicode="&#xad;" horiz-adv-x="1203" d="M942 601h-721l18 101h722z" />
<glyph unicode="&#xae;" d="M71 539q17 112 69.5 213t132.5 178t182.5 122.5t219.5 45.5q115 0 204 -47t146 -125t80 -178.5t7 -208.5q-17 -111 -69.5 -212.5t-132 -179t-182 -123t-219.5 -45.5q-77 0 -142 21.5t-117.5 60t-91 91t-61.5 114.5t-30 131.5t4 141.5zM141 539q-15 -93 3.5 -180.5 t66.5 -156t124 -110t176 -41.5q101 0 190.5 40t160 107.5t117 156t62.5 184.5q15 92 -3 179.5t-66 156t-123.5 110t-175.5 41.5q-102 0 -191.5 -40t-160 -107t-117.5 -155t-63 -185zM464 491l-41 -257h-80l98 622h197q42 -2 80 -13.5t65.5 -34t41.5 -56.5t7 -81 q-5 -32 -19.5 -57t-35.5 -43.5t-47.5 -32t-54.5 -22.5l101 -282h-79l-90 257h-143zM475 565h129q25 1 49 8t44 19.5t34.5 32t20.5 45.5q6 30 -1.5 51t-24.5 33.5t-41 18.5t-50 8h-126z" />
<glyph unicode="&#xaf;" d="M1040 1359h-652l15 97h653z" />
<glyph unicode="&#xb0;" d="M467 1226q7 49 32.5 94.5t63 80t84.5 55t98 20.5q49 0 89 -21.5t66 -57t37 -80.5t4 -91q-8 -49 -32.5 -93.5t-61 -78t-82.5 -54t-96 -20.5t-90.5 20.5t-68 55t-39.5 78.5t-4 92zM555 1226q-6 -30 0 -58t22.5 -49t41 -34t56.5 -13t61.5 12.5t53 33.5t40 49t22.5 59 q6 29 1 57.5t-19.5 51t-38.5 36t-56 13.5q-33 0 -63.5 -12.5t-55 -34.5t-42 -51t-23.5 -60z" />
<glyph unicode="&#xb1;" d="M698 829h380l-17 -101h-379l-69 -439h-110l69 439h-402l16 101h401l69 438h111zM916 -1h-813l19 102h812z" />
<glyph unicode="&#xb2;" d="M907 667h-557l14 80l324 278q25 22 52.5 46.5t52 52.5t42 59t21.5 66q3 31 -5 55.5t-25.5 41.5t-42 26.5t-54.5 9.5q-40 0 -72 -11.5t-57 -33t-42 -52t-27 -66.5l-104 -1q9 58 36 104.5t66.5 79.5t91 50.5t110.5 16.5q48 -1 92 -15.5t76.5 -42t50.5 -68t15 -92.5 q-3 -48 -25 -90.5t-54 -79t-69.5 -69t-71.5 -60.5l-242 -198h420z" />
<glyph unicode="&#xb3;" d="M601 1107h75q33 1 67.5 9t63 25.5t48.5 44t24 64.5q4 32 -6 56.5t-29.5 40.5t-46 24.5t-55.5 8.5q-69 1 -117.5 -33.5t-68.5 -98.5l-105 -1q9 54 35.5 96t65.5 69.5t87.5 41.5t102.5 13q48 -1 93 -14.5t79.5 -40t54.5 -66.5t16 -94q-3 -38 -18.5 -67t-39.5 -51.5t-54 -39 t-62 -29.5q62 -20 97 -64.5t32 -111.5q-3 -60 -31 -104.5t-70.5 -73.5t-95.5 -43t-107 -13t-101 16t-82 44t-55 72t-20 99h104q0 -36 12 -62.5t33.5 -44.5t50.5 -27t63 -9t67.5 9t61 27.5t45.5 46.5t22 65q4 39 -9 64t-37 40.5t-55 22t-63 7.5l-80 1z" />
<glyph unicode="&#xb4;" d="M751 1498h151l-266 -265h-106z" />
<glyph unicode="&#xb5;" d="M400 1082l-106 -635q-7 -57 -6 -120t19 -117t59 -90t114 -39q60 -2 116 14.5t102.5 48.5t80.5 78.5t50 105.5l130 754h119l-188 -1082h-109l29 162q-58 -86 -139.5 -135t-187.5 -47q-76 2 -141.5 33.5t-106.5 96.5l-95 -526h-118l261 1498h117z" />
<glyph unicode="&#xb6;" d="M700 0l90 520l-93 1q-99 3 -178.5 38t-132.5 96t-78 144t-15 182q10 109 57.5 197t121.5 150t169 95.5t202 33.5l229 -1l-253 -1456h-119z" />
<glyph unicode="&#xb7;" d="M537 717q3 34 28.5 58.5t60.5 25.5q17 0 32 -6.5t26 -17.5t16.5 -26.5t4.5 -33.5q-1 -17 -8.5 -32t-19.5 -26t-28 -18t-33 -7q-35 -1 -58 23.5t-21 59.5z" />
<glyph unicode="&#xb8;" d="M498 0l-22 -66q63 -14 100.5 -53.5t34.5 -108.5q-3 -62 -34.5 -101.5t-78.5 -62.5t-102 -33t-105 -12l2 79q31 1 67.5 6.5t68.5 20t55 38.5t28 63q4 32 -9.5 51t-36 29.5t-50 15t-51.5 7.5l43 127h90z" />
<glyph unicode="&#xb9;" d="M733 665h-104l115 660l-238 -69l17 94l328 105h16z" />
<glyph unicode="&#xba;" d="M375 1141q13 69 44.5 129.5t79.5 106t109.5 72.5t134.5 27q72 0 125 -27.5t86.5 -73.5t46.5 -106.5t3 -127.5l-20 -117q-12 -68 -44 -128.5t-79 -106t-109 -72.5t-134 -27t-125.5 27t-87.5 73t-47 106.5t-3 127.5zM461 1024q-7 -45 -1.5 -88t25 -76.5t54 -54t86.5 -20.5 q51 0 93.5 20t74.5 53t53.5 76t31.5 90l21 117q7 44 1.5 87t-25 76.5t-54 54.5t-85.5 21t-93.5 -20t-75 -53t-54 -76.5t-31.5 -89.5z" />
<glyph unicode="&#xbb;" d="M396 944l223 -382l-2 -20l-348 -380h-114l341 394l-197 388h97zM731 944l223 -382l-2 -20l-348 -380h-114l341 394l-197 388h97z" />
<glyph unicode="&#xbc;" d="M384.614 751h-93.6025l103.503 594.016l-214.206 -62.1016l15.3008 84.6025l295.207 94.5029h14.4004zM289 180l-79 52l687 1042l77 -48zM959.518 247.507h111.604l-14.4004 -79.2021h-110.703l-29.7012 -168.305h-94.502l30.6006 168.305h-346.51l3.60059 58.502 l427.512 483.312h103.502zM619.309 247.507h245.707l65.7012 346.509l-35.1006 -45.9004z" />
<glyph unicode="&#xbd;" d="M248 180l-79 52l687 1042l77 -48zM380.614 747h-93.6025l103.503 594.016l-214.206 -62.1016l15.3008 84.6025l295.207 94.5029h14.4004zM1036.62 0h-501.313l12.6006 72.002l291.607 250.207q22.501 19.8008 47.251 41.8506q24.751 22.0508 46.8018 47.252 q22.0508 25.2002 37.8008 53.1006q15.751 27.9014 19.3506 59.4023q2.7002 27.9004 -4.5 49.9512t-22.9502 37.3506q-15.751 15.3008 -37.8018 23.8506q-22.0498 8.55078 -49.0508 8.55078q-36.001 0 -64.8018 -10.3506t-51.3018 -29.7002 q-22.501 -19.3506 -37.8008 -46.8018q-15.3008 -27.4502 -24.3008 -59.8516l-93.6025 -0.900391q8.10059 52.2021 32.4004 94.0527q24.3008 41.8516 59.8525 71.5518q35.5508 29.7012 81.9014 45.4512q46.3516 15.751 99.4531 14.8506q43.2012 -0.899414 82.8027 -13.9502 q39.6006 -13.0508 68.8516 -37.8008q29.251 -24.751 45.4512 -61.2021q16.2002 -36.4502 13.5 -83.252q-2.7002 -43.2012 -22.5 -81.4521q-19.8008 -38.251 -48.6016 -71.1016q-28.8008 -32.8516 -62.5518 -62.1025q-33.751 -29.25 -64.3516 -54.4512l-217.806 -178.205 h378.01z" />
<glyph unicode="&#xbe;" d="M358 175l-79 52l687 1042l77 -48zM986.518 248.507h111.604l-14.4004 -79.2021h-110.703l-29.7012 -168.305h-94.502l30.6006 168.305h-346.51l3.60059 58.502l427.512 483.312h103.502zM646.309 248.507h245.707l65.7012 346.509l-35.1006 -45.9004zM319.712 1140.91 h67.501q29.7012 0.899414 60.752 8.09961t56.7021 22.9512q25.6504 15.75 43.6504 39.6006q18.001 23.8506 21.6006 58.0518q3.60059 28.8008 -5.39941 50.8516q-9.00098 22.0508 -26.5508 36.4512q-17.5508 14.4004 -41.4014 22.0498q-23.8506 7.65039 -49.9512 7.65039 q-62.1016 0.900391 -105.753 -30.1504t-61.6514 -88.6523l-94.5029 -0.900391q8.10059 48.6016 31.9512 86.4023t58.9512 62.5518t78.752 37.3506q43.6514 12.6006 92.2529 11.7012q43.2012 -0.900391 83.7021 -13.0508t71.5518 -36.001t49.0518 -59.8516 q18 -36.001 14.4004 -84.6025q-2.7002 -34.2012 -16.6504 -60.3018q-13.9512 -26.1006 -35.5518 -46.3506q-21.6006 -20.251 -48.6006 -35.1016q-27.001 -14.8496 -55.8018 -26.5508q55.8018 -18 87.3027 -58.0508q31.5 -40.0518 28.8008 -100.354 q-2.7002 -54.001 -27.9014 -94.0518q-25.2002 -40.0518 -63.4512 -66.1523t-85.9531 -38.7012q-47.7012 -12.6006 -96.3018 -11.7002q-48.6016 0.900391 -90.9033 14.4004q-42.3008 13.5 -73.8018 39.6016q-31.501 26.1006 -49.501 64.8018q-18.001 38.7002 -18.001 89.1025 h93.6025q0 -32.4014 10.8008 -56.252q10.7998 -23.8506 30.1504 -40.0508q19.3506 -16.2012 45.4512 -24.3008q26.1006 -8.10059 56.7021 -8.10059q30.6006 0 60.751 8.10059q30.1514 8.09961 54.9014 24.75q24.751 16.6504 40.9512 41.8516q16.2012 25.2012 19.8008 58.502 q3.60059 35.1006 -8.09961 57.6016q-11.7012 22.5 -33.3018 36.4502q-21.6006 13.9512 -49.501 19.8008q-27.9004 5.85059 -56.7012 6.75l-72.002 0.900391z" />
<glyph unicode="&#xbf;" d="M685 685q-8 -54 -21 -97.5t-34 -81t-51 -71.5t-72 -70q-44 -39 -88.5 -81t-81.5 -89t-63 -101t-33 -115q-6 -54 4 -101t36 -82t67.5 -56t98.5 -22q60 -2 108.5 17.5t86 54t62.5 81.5t38 102l115 1q-13 -81 -48.5 -148t-89.5 -115t-125 -74t-155 -24q-79 2 -141.5 29.5 t-104.5 76t-61.5 114.5t-11.5 144q7 76 37.5 141.5t74.5 122.5t98.5 107t110.5 96q30 25 52 51t37 55.5t25 62.5t17 71zM599 1018q3 34 29 58.5t61 25.5q17 0 32 -6.5t25.5 -17.5t16 -26.5t4.5 -33.5q-1 -17 -8.5 -32t-19.5 -26t-27.5 -18t-32.5 -7q-35 -1 -58.5 23.5 t-21.5 59.5z" />
<glyph unicode="&#xc0;" d="M845 406h-534l-196 -406h-125l713 1456h107l204 -1456h-115zM362 513h469l-101 761zM836 1565h-95l-170 266h134z" />
<glyph unicode="&#xc1;" d="M845 406h-534l-196 -406h-125l713 1456h107l204 -1456h-115zM362 513h469l-101 761zM934 1829h151l-266 -265h-106z" />
<glyph unicode="&#xc2;" d="M845 406h-534l-196 -406h-125l713 1456h107l204 -1456h-115zM362 513h469l-101 761zM1059 1609l-2 -18h-107l-133 172l-192 -171l-109 -1l2 20l267 239h73z" />
<glyph unicode="&#xc3;" d="M845 406h-534l-196 -406h-125l713 1456h107l204 -1456h-115zM362 513h469l-101 761zM1129 1827q-6 -39 -21 -77t-39.5 -67t-59 -47t-79.5 -18q-39 0 -70.5 18t-61 39.5t-60.5 39t-68 16.5q-27 0 -47.5 -10.5t-35.5 -27t-25 -37.5t-17 -44l-80 13q7 40 23.5 77t42 65.5 t61 45t79.5 16.5q39 -1 70.5 -19t61.5 -39.5t61 -38.5t69 -16q27 1 47 12t35 28t25 39t16 45z" />
<glyph unicode="&#xc4;" d="M845 406h-534l-196 -406h-125l713 1456h107l204 -1456h-115zM362 513h469l-101 761zM505 1729q1 16 8.5 31t19 26t26 18t31.5 7q34 0 57 -24t20 -58q-2 -33 -27 -56t-58 -24q-34 0 -56.5 23t-20.5 57zM930 1728q1 16 8 31t18.5 26t26.5 18t32 7q34 0 56.5 -24t20.5 -58 q-2 -33 -27.5 -56t-57.5 -24q-34 0 -56.5 23t-20.5 57z" />
<glyph unicode="&#xc5;" d="M845 406h-534l-196 -406h-125l713 1456h107l204 -1456h-115zM362 513h469l-101 761zM623 1717q6 37 24.5 70.5t46.5 59t63 41t73 15.5q37 0 67.5 -15.5t51 -41.5t29.5 -59.5t3 -69.5q-6 -37 -24.5 -70t-46 -58t-62 -39.5t-72.5 -14.5t-68.5 15t-51 40t-30 58t-3.5 69z M698 1717q-4 -21 0 -40.5t14.5 -35t27.5 -25t39 -9.5q23 0 44 9t37.5 24.5t28 35.5t16.5 41q4 21 1 41t-13 36t-27 26t-39 10q-23 0 -44.5 -9.5t-39 -25t-29.5 -36t-16 -42.5z" />
<glyph unicode="&#xc6;" d="M1033 0h-490l62 389h-327l-204 -389h-129l789 1456h523l-18 -102h-370l-87 -545h322l-18 -102h-320l-97 -606h382zM337 502h286l126 783z" />
<glyph unicode="&#xc7;" d="M1032 443q-22 -96 -67.5 -181.5t-112 -149t-153.5 -99.5t-192 -33q-84 3 -147.5 32t-109 77.5t-74.5 112t-43.5 134t-16 144t8.5 142.5l34 211q13 75 36.5 152.5t59.5 149.5t83.5 135t108 109.5t134 72.5t160.5 24q100 -2 174 -40.5t123.5 -102t74 -147t25.5 -176.5h-117 q-2 68 -18 133t-49.5 116t-87.5 82.5t-131 33.5q-71 2 -129.5 -21t-106 -63.5t-83.5 -94.5t-63 -114.5t-45 -124t-28 -122.5l-36 -214q-8 -52 -9.5 -111.5t5.5 -118.5t25 -114t50.5 -97.5t81 -69.5t116.5 -29q84 -3 149.5 25.5t115.5 78.5t85.5 117t58.5 139zM533 -4 l-22 -66q63 -14 100.5 -53.5t34.5 -108.5q-3 -62 -34.5 -101.5t-78.5 -62.5t-102 -33t-105 -12l2 79q31 1 67.5 6.5t68.5 20t55 38.5t28 63q4 32 -9.5 51t-36 29.5t-50 15t-51.5 7.5l43 127h90z" />
<glyph unicode="&#xc8;" d="M952 698h-623l-103 -594h718l-18 -104h-836l252 1456h833l-19 -105h-714l-95 -549h623zM782 1565h-95l-170 266h134z" />
<glyph unicode="&#xc9;" d="M952 698h-623l-103 -594h718l-18 -104h-836l252 1456h833l-19 -105h-714l-95 -549h623zM880 1829h151l-266 -265h-106z" />
<glyph unicode="&#xca;" d="M952 698h-623l-103 -594h718l-18 -104h-836l252 1456h833l-19 -105h-714l-95 -549h623zM1005 1609l-2 -18h-107l-133 172l-192 -171l-109 -1l2 20l267 239h73z" />
<glyph unicode="&#xcb;" d="M952 698h-623l-103 -594h718l-18 -104h-836l252 1456h833l-19 -105h-714l-95 -549h623zM451 1729q1 16 8.5 31t19 26t26 18t31.5 7q34 0 57 -24t20 -58q-2 -33 -27 -56t-58 -24q-34 0 -56.5 23t-20.5 57zM876 1728q1 16 8 31t18.5 26t26.5 18t32 7q34 0 56.5 -24 t20.5 -58q-2 -33 -27.5 -56t-57.5 -24q-34 0 -56.5 23t-20.5 57z" />
<glyph unicode="&#xcc;" d="M335 1456h820l-19 -108h-354l-215 -1242h354l-19 -106h-820l19 106h343l215 1242h-344zM808 1565h-95l-170 266h134z" />
<glyph unicode="&#xcd;" d="M335 1456h820l-19 -108h-354l-215 -1242h354l-19 -106h-820l19 106h343l215 1242h-344zM906 1829h151l-266 -265h-106z" />
<glyph unicode="&#xce;" d="M335 1456h820l-19 -108h-354l-215 -1242h354l-19 -106h-820l19 106h343l215 1242h-344zM1031 1609l-2 -18h-107l-133 172l-192 -171l-109 -1l2 20l267 239h73z" />
<glyph unicode="&#xcf;" d="M335 1456h820l-19 -108h-354l-215 -1242h354l-19 -106h-820l19 106h343l215 1242h-344zM477 1729q1 16 8.5 31t19 26t26 18t31.5 7q34 0 57 -24t20 -58q-2 -33 -27 -56t-58 -24q-34 0 -56.5 23t-20.5 57zM902 1728q1 16 8 31t18.5 26t26.5 18t32 7q34 0 56.5 -24 t20.5 -58q-2 -33 -27.5 -56t-57.5 -24q-34 0 -56.5 23t-20.5 57z" />
<glyph unicode="&#xd0;" horiz-adv-x="1232" d="M96 0l119 689h-243l18 102h243l116 665l335 -1q133 -4 229.5 -61.5t155 -149.5t80 -208t5.5 -237l-22 -143q-21 -131 -78 -250t-145 -209t-204.5 -143.5t-257.5 -53.5h-351zM568 689h-233l-102 -588l217 -1q118 1 213.5 47.5t167 123.5t117.5 177t64 208l23 147 q9 63 6.5 128t-17 125t-42.5 113t-70.5 92.5t-99.5 64t-131 27.5l-230 1l-98 -563h234z" />
<glyph unicode="&#xd1;" d="M934 0h-115l-435 1231l-215 -1231h-118l253 1456h114l435 -1229l215 1229h118zM1112 1827q-6 -39 -21 -77t-39.5 -67t-59 -47t-79.5 -18q-39 0 -70.5 18t-61 39.5t-60.5 39t-68 16.5q-27 0 -47.5 -10.5t-35.5 -27t-25 -37.5t-17 -44l-80 13q7 40 23.5 77t42 65.5t61 45 t79.5 16.5q39 -1 70.5 -19t61.5 -39.5t61 -38.5t69 -16q27 1 47 12t35 28t25 39t16 45z" />
<glyph unicode="&#xd2;" d="M1078 632q-13 -74 -36 -152t-58 -151t-81.5 -137.5t-106.5 -112.5t-133.5 -75t-160.5 -24q-83 2 -146 32.5t-108 80t-73.5 114.5t-42.5 136.5t-15 145.5t9 142l31 192q12 74 35.5 151.5t58.5 151t82 138t107 112.5t133.5 75t160.5 25q84 -2 147 -32.5t108 -80.5t73 -115 t41.5 -137t14 -146t-8.5 -142zM992 827q7 51 9 110.5t-5 119t-24.5 115t-49.5 98.5t-80 70t-116 29q-71 2 -128.5 -21.5t-104.5 -64.5t-83 -96t-62.5 -116.5t-44.5 -124.5t-28 -121l-32 -195q-7 -51 -9 -110.5t5 -119t25 -115.5t50 -99t80 -70t116 -29q71 -3 129 20.5 t105 64.5t82.5 96t62 116t44 125t27.5 122zM838 1586h-95l-170 266h134z" />
<glyph unicode="&#xd3;" d="M1078 632q-13 -74 -36 -152t-58 -151t-81.5 -137.5t-106.5 -112.5t-133.5 -75t-160.5 -24q-83 2 -146 32.5t-108 80t-73.5 114.5t-42.5 136.5t-15 145.5t9 142l31 192q12 74 35.5 151.5t58.5 151t82 138t107 112.5t133.5 75t160.5 25q84 -2 147 -32.5t108 -80.5t73 -115 t41.5 -137t14 -146t-8.5 -142zM992 827q7 51 9 110.5t-5 119t-24.5 115t-49.5 98.5t-80 70t-116 29q-71 2 -128.5 -21.5t-104.5 -64.5t-83 -96t-62.5 -116.5t-44.5 -124.5t-28 -121l-32 -195q-7 -51 -9 -110.5t5 -119t25 -115.5t50 -99t80 -70t116 -29q71 -3 129 20.5 t105 64.5t82.5 96t62 116t44 125t27.5 122zM936 1850h151l-266 -265h-106z" />
<glyph unicode="&#xd4;" d="M1078 632q-13 -74 -36 -152t-58 -151t-81.5 -137.5t-106.5 -112.5t-133.5 -75t-160.5 -24q-83 2 -146 32.5t-108 80t-73.5 114.5t-42.5 136.5t-15 145.5t9 142l31 192q12 74 35.5 151.5t58.5 151t82 138t107 112.5t133.5 75t160.5 25q84 -2 147 -32.5t108 -80.5t73 -115 t41.5 -137t14 -146t-8.5 -142zM992 827q7 51 9 110.5t-5 119t-24.5 115t-49.5 98.5t-80 70t-116 29q-71 2 -128.5 -21.5t-104.5 -64.5t-83 -96t-62.5 -116.5t-44.5 -124.5t-28 -121l-32 -195q-7 -51 -9 -110.5t5 -119t25 -115.5t50 -99t80 -70t116 -29q71 -3 129 20.5 t105 64.5t82.5 96t62 116t44 125t27.5 122zM1061 1630l-2 -18h-107l-133 172l-192 -171l-109 -1l2 20l267 239h73z" />
<glyph unicode="&#xd5;" d="M1078 632q-13 -74 -36 -152t-58 -151t-81.5 -137.5t-106.5 -112.5t-133.5 -75t-160.5 -24q-83 2 -146 32.5t-108 80t-73.5 114.5t-42.5 136.5t-15 145.5t9 142l31 192q12 74 35.5 151.5t58.5 151t82 138t107 112.5t133.5 75t160.5 25q84 -2 147 -32.5t108 -80.5t73 -115 t41.5 -137t14 -146t-8.5 -142zM992 827q7 51 9 110.5t-5 119t-24.5 115t-49.5 98.5t-80 70t-116 29q-71 2 -128.5 -21.5t-104.5 -64.5t-83 -96t-62.5 -116.5t-44.5 -124.5t-28 -121l-32 -195q-7 -51 -9 -110.5t5 -119t25 -115.5t50 -99t80 -70t116 -29q71 -3 129 20.5 t105 64.5t82.5 96t62 116t44 125t27.5 122zM1131 1848q-6 -39 -21 -77t-39.5 -67t-59 -47t-79.5 -18q-39 0 -70.5 18t-61 39.5t-60.5 39t-68 16.5q-27 0 -47.5 -10.5t-35.5 -27t-25 -37.5t-17 -44l-80 13q7 40 23.5 77t42 65.5t61 45t79.5 16.5q39 -1 70.5 -19t61.5 -39.5 t61 -38.5t69 -16q27 1 47 12t35 28t25 39t16 45z" />
<glyph unicode="&#xd6;" d="M1078 632q-13 -74 -36 -152t-58 -151t-81.5 -137.5t-106.5 -112.5t-133.5 -75t-160.5 -24q-83 2 -146 32.5t-108 80t-73.5 114.5t-42.5 136.5t-15 145.5t9 142l31 192q12 74 35.5 151.5t58.5 151t82 138t107 112.5t133.5 75t160.5 25q84 -2 147 -32.5t108 -80.5t73 -115 t41.5 -137t14 -146t-8.5 -142zM992 827q7 51 9 110.5t-5 119t-24.5 115t-49.5 98.5t-80 70t-116 29q-71 2 -128.5 -21.5t-104.5 -64.5t-83 -96t-62.5 -116.5t-44.5 -124.5t-28 -121l-32 -195q-7 -51 -9 -110.5t5 -119t25 -115.5t50 -99t80 -70t116 -29q71 -3 129 20.5 t105 64.5t82.5 96t62 116t44 125t27.5 122zM507 1750q1 16 8.5 31t19 26t26 18t31.5 7q34 0 57 -24t20 -58q-2 -33 -27 -56t-58 -24q-34 0 -56.5 23t-20.5 57zM932 1749q1 16 8 31t18.5 26t26.5 18t32 7q34 0 56.5 -24t20.5 -58q-2 -33 -27.5 -56t-57.5 -24q-34 0 -56.5 23 t-20.5 57z" />
<glyph unicode="&#xd7;" d="M117 185l411 364l-273 351l86 75l271 -350l394 349l68 -86l-394 -349l286 -366l-86 -74l-285 364l-410 -363z" />
<glyph unicode="&#xd8;" d="M1068 632q-12 -74 -35.5 -152t-58.5 -151t-81.5 -137.5t-106.5 -112.5t-133.5 -75t-160.5 -24q-88 2 -152 34t-110 86l-137 -184h-110l195 262q-26 49 -42 105.5t-23 115.5t-6 118t9 114l31 192q12 74 35.5 151.5t58.5 151t82 138t107 112.5t133.5 75t160.5 25 q105 -3 177.5 -49t118.5 -119l147 197h110l-213 -287q17 -46 27 -95.5t14 -100.5t2 -101.5t-8 -97.5zM233 630q-6 -39 -8.5 -82.5t0 -89t9.5 -90.5t21 -86l692 928q-30 67 -86 111.5t-145 47.5q-70 2 -128 -21.5t-105 -64.5t-83 -96t-62.5 -116.5t-44.5 -124.5t-28 -121z M982 827q8 62 9.5 134.5t-12.5 142.5l-680 -911q32 -47 81 -75.5t120 -30.5q71 -3 129 20.5t105 64.5t82.5 96t62 116t44 125t27.5 122z" />
<glyph unicode="&#xd9;" d="M1189 1456l-167 -985q-15 -98 -59 -187.5t-111.5 -158t-156 -108t-193.5 -37.5q-99 2 -173 44.5t-121.5 110.5t-67 154.5t-9.5 178.5l171 988h112l-166 -988q-8 -68 3 -135t42.5 -121.5t85 -89.5t130.5 -38q81 -3 148 29.5t117.5 87.5t83 125t45.5 144l171 986h115z M842 1559h-95l-170 266h134z" />
<glyph unicode="&#xda;" d="M1189 1456l-167 -985q-15 -98 -59 -187.5t-111.5 -158t-156 -108t-193.5 -37.5q-99 2 -173 44.5t-121.5 110.5t-67 154.5t-9.5 178.5l171 988h112l-166 -988q-8 -68 3 -135t42.5 -121.5t85 -89.5t130.5 -38q81 -3 148 29.5t117.5 87.5t83 125t45.5 144l171 986h115z M940 1823h151l-266 -265h-106z" />
<glyph unicode="&#xdb;" d="M1189 1456l-167 -985q-15 -98 -59 -187.5t-111.5 -158t-156 -108t-193.5 -37.5q-99 2 -173 44.5t-121.5 110.5t-67 154.5t-9.5 178.5l171 988h112l-166 -988q-8 -68 3 -135t42.5 -121.5t85 -89.5t130.5 -38q81 -3 148 29.5t117.5 87.5t83 125t45.5 144l171 986h115z M1065 1603l-2 -18h-107l-133 172l-192 -171l-109 -1l2 20l267 239h73z" />
<glyph unicode="&#xdc;" d="M1189 1456l-167 -985q-15 -98 -59 -187.5t-111.5 -158t-156 -108t-193.5 -37.5q-99 2 -173 44.5t-121.5 110.5t-67 154.5t-9.5 178.5l171 988h112l-166 -988q-8 -68 3 -135t42.5 -121.5t85 -89.5t130.5 -38q81 -3 148 29.5t117.5 87.5t83 125t45.5 144l171 986h115z M511 1723q1 16 8.5 31t19 26t26 18t31.5 7q34 0 57 -24t20 -58q-2 -33 -27 -56t-58 -24q-34 0 -56.5 23t-20.5 57zM936 1722q1 16 8 31t18.5 26t26.5 18t32 7q34 0 56.5 -24t20.5 -58q-2 -33 -27.5 -56t-57.5 -24q-34 0 -56.5 23t-20.5 57z" />
<glyph unicode="&#xdd;" d="M590 665l514 791h141l-615 -915l-96 -541h-112l95 556l-293 900h130zM906 1822h151l-266 -265h-106z" />
<glyph unicode="&#xde;" d="M451 1456l-53 -304l305 -1q89 -3 164.5 -31.5t128.5 -81t80 -126.5t19 -167q-9 -102 -55.5 -181t-117.5 -132.5t-160.5 -81t-186.5 -27.5l-320 1l-57 -324h-118l253 1456h118zM381 1051l-109 -626l306 -2q73 0 141 21.5t122.5 62.5t90.5 100.5t44 136.5q7 67 -10 122 t-54 95t-91 63t-120 26z" />
<glyph unicode="&#xdf;" d="M200 0h-118l191 1116q12 83 43 161.5t82.5 139.5t123.5 97t165 33q64 -2 118.5 -24t93 -61t58 -93.5t13.5 -120.5q-4 -41 -16.5 -78t-30.5 -71.5t-38 -68t-38.5 -68t-33 -70.5t-19.5 -75q-7 -48 7 -90t38 -81t53.5 -76.5t54.5 -78t41 -85t12 -96.5q-6 -75 -37.5 -137 t-82 -105.5t-116.5 -67.5t-140 -23q-75 1 -152.5 20t-137.5 64l44 99q51 -37 112.5 -59t125.5 -23q51 0 97 16.5t82 47.5t59 73.5t29 94.5q6 50 -8.5 92.5t-39 81.5t-55 76.5t-55.5 77t-40 83.5t-10 97q6 59 32 110.5t56 101.5t56 101.5t32 110.5q4 39 -5.5 75t-31 64 t-53.5 45.5t-73 19.5q-70 3 -122 -26t-88 -76.5t-57 -107.5t-30 -119z" />
<glyph unicode="&#xe0;" d="M810 0q-5 39 -3.5 77.5t7.5 78.5q-78 -82 -179 -130t-217 -46q-65 2 -122.5 23t-100 59.5t-65.5 93t-19 123.5t30 122t67 92t94.5 65.5t112.5 42t120 22.5t119 7l233 -1l18 124q6 59 -10 104.5t-49 77t-80 48.5t-103 19q-55 1 -107 -12t-95 -40.5t-75 -69t-46 -96.5h-117 q13 80 57 140t106 100t137 59.5t151 18.5q78 -2 145.5 -26t115.5 -69t72.5 -109.5t16.5 -147.5l-87 -524q-9 -55 -7 -107t4 -106l-1 -13h-123zM436 86q61 -2 118 12t107.5 42t93.5 68.5t76 90.5l41 238l-203 1q-43 0 -90.5 -3.5t-94.5 -13.5t-91 -28t-78.5 -45.5t-57 -66.5 t-27.5 -92q-5 -48 10.5 -85t44 -63t68 -40t83.5 -15zM785 1244h-95l-170 266h134z" />
<glyph unicode="&#xe1;" d="M810 0q-5 39 -3.5 77.5t7.5 78.5q-78 -82 -179 -130t-217 -46q-65 2 -122.5 23t-100 59.5t-65.5 93t-19 123.5t30 122t67 92t94.5 65.5t112.5 42t120 22.5t119 7l233 -1l18 124q6 59 -10 104.5t-49 77t-80 48.5t-103 19q-55 1 -107 -12t-95 -40.5t-75 -69t-46 -96.5h-117 q13 80 57 140t106 100t137 59.5t151 18.5q78 -2 145.5 -26t115.5 -69t72.5 -109.5t16.5 -147.5l-87 -524q-9 -55 -7 -107t4 -106l-1 -13h-123zM436 86q61 -2 118 12t107.5 42t93.5 68.5t76 90.5l41 238l-203 1q-43 0 -90.5 -3.5t-94.5 -13.5t-91 -28t-78.5 -45.5t-57 -66.5 t-27.5 -92q-5 -48 10.5 -85t44 -63t68 -40t83.5 -15zM883 1508h151l-266 -265h-106z" />
<glyph unicode="&#xe2;" d="M810 0q-5 39 -3.5 77.5t7.5 78.5q-78 -82 -179 -130t-217 -46q-65 2 -122.5 23t-100 59.5t-65.5 93t-19 123.5t30 122t67 92t94.5 65.5t112.5 42t120 22.5t119 7l233 -1l18 124q6 59 -10 104.5t-49 77t-80 48.5t-103 19q-55 1 -107 -12t-95 -40.5t-75 -69t-46 -96.5h-117 q13 80 57 140t106 100t137 59.5t151 18.5q78 -2 145.5 -26t115.5 -69t72.5 -109.5t16.5 -147.5l-87 -524q-9 -55 -7 -107t4 -106l-1 -13h-123zM436 86q61 -2 118 12t107.5 42t93.5 68.5t76 90.5l41 238l-203 1q-43 0 -90.5 -3.5t-94.5 -13.5t-91 -28t-78.5 -45.5t-57 -66.5 t-27.5 -92q-5 -48 10.5 -85t44 -63t68 -40t83.5 -15zM1008 1288l-2 -18h-107l-133 172l-192 -171l-109 -1l2 20l267 239h73z" />
<glyph unicode="&#xe3;" d="M810 0q-5 39 -3.5 77.5t7.5 78.5q-78 -82 -179 -130t-217 -46q-65 2 -122.5 23t-100 59.5t-65.5 93t-19 123.5t30 122t67 92t94.5 65.5t112.5 42t120 22.5t119 7l233 -1l18 124q6 59 -10 104.5t-49 77t-80 48.5t-103 19q-55 1 -107 -12t-95 -40.5t-75 -69t-46 -96.5h-117 q13 80 57 140t106 100t137 59.5t151 18.5q78 -2 145.5 -26t115.5 -69t72.5 -109.5t16.5 -147.5l-87 -524q-9 -55 -7 -107t4 -106l-1 -13h-123zM436 86q61 -2 118 12t107.5 42t93.5 68.5t76 90.5l41 238l-203 1q-43 0 -90.5 -3.5t-94.5 -13.5t-91 -28t-78.5 -45.5t-57 -66.5 t-27.5 -92q-5 -48 10.5 -85t44 -63t68 -40t83.5 -15zM1078 1506q-6 -39 -21 -77t-39.5 -67t-59 -47t-79.5 -18q-39 0 -70.5 18t-61 39.5t-60.5 39t-68 16.5q-27 0 -47.5 -10.5t-35.5 -27t-25 -37.5t-17 -44l-80 13q7 40 23.5 77t42 65.5t61 45t79.5 16.5q39 -1 70.5 -19 t61.5 -39.5t61 -38.5t69 -16q27 1 47 12t35 28t25 39t16 45z" />
<glyph unicode="&#xe4;" d="M810 0q-5 39 -3.5 77.5t7.5 78.5q-78 -82 -179 -130t-217 -46q-65 2 -122.5 23t-100 59.5t-65.5 93t-19 123.5t30 122t67 92t94.5 65.5t112.5 42t120 22.5t119 7l233 -1l18 124q6 59 -10 104.5t-49 77t-80 48.5t-103 19q-55 1 -107 -12t-95 -40.5t-75 -69t-46 -96.5h-117 q13 80 57 140t106 100t137 59.5t151 18.5q78 -2 145.5 -26t115.5 -69t72.5 -109.5t16.5 -147.5l-87 -524q-9 -55 -7 -107t4 -106l-1 -13h-123zM436 86q61 -2 118 12t107.5 42t93.5 68.5t76 90.5l41 238l-203 1q-43 0 -90.5 -3.5t-94.5 -13.5t-91 -28t-78.5 -45.5t-57 -66.5 t-27.5 -92q-5 -48 10.5 -85t44 -63t68 -40t83.5 -15zM454 1408q1 16 8.5 31t19 26t26 18t31.5 7q34 0 57 -24t20 -58q-2 -33 -27 -56t-58 -24q-34 0 -56.5 23t-20.5 57zM879 1407q1 16 8 31t18.5 26t26.5 18t32 7q34 0 56.5 -24t20.5 -58q-2 -33 -27.5 -56t-57.5 -24 q-34 0 -56.5 23t-20.5 57z" />
<glyph unicode="&#xe5;" d="M810 0q-5 39 -3.5 77.5t7.5 78.5q-78 -82 -179 -130t-217 -46q-65 2 -122.5 23t-100 59.5t-65.5 93t-19 123.5t30 122t67 92t94.5 65.5t112.5 42t120 22.5t119 7l233 -1l18 124q6 59 -10 104.5t-49 77t-80 48.5t-103 19q-55 1 -107 -12t-95 -40.5t-75 -69t-46 -96.5h-117 q13 80 57 140t106 100t137 59.5t151 18.5q78 -2 145.5 -26t115.5 -69t72.5 -109.5t16.5 -147.5l-87 -524q-9 -55 -7 -107t4 -106l-1 -13h-123zM436 86q61 -2 118 12t107.5 42t93.5 68.5t76 90.5l41 238l-203 1q-43 0 -90.5 -3.5t-94.5 -13.5t-91 -28t-78.5 -45.5t-57 -66.5 t-27.5 -92q-5 -48 10.5 -85t44 -63t68 -40t83.5 -15zM572 1396q6 37 24.5 70.5t46.5 59t63 41t73 15.5q37 0 67.5 -15.5t51 -41.5t29.5 -59.5t3 -69.5q-6 -37 -24.5 -70t-46 -58t-62 -39.5t-72.5 -14.5t-68.5 15t-51 40t-30 58t-3.5 69zM647 1396q-4 -21 0 -40.5t14.5 -35 t27.5 -25t39 -9.5q23 0 44 9t37.5 24.5t28 35.5t16.5 41q4 21 1 41t-13 36t-27 26t-39 10q-23 0 -44.5 -9.5t-39 -25t-29.5 -36t-16 -42.5z" />
<glyph unicode="&#xe6;" d="M772 -19q-44 1 -84 12t-74 32.5t-59.5 53t-40.5 73.5q-26 -37 -57 -69t-67.5 -55t-78.5 -36t-89 -12q-63 1 -108 26t-73.5 66t-41 94t-8.5 110q6 83 38.5 149.5t86 112.5t124 71t152.5 25l133 -2l25 171q4 38 0 73t-18.5 62.5t-42 44.5t-71.5 18t-78.5 -13t-60.5 -39.5 t-42.5 -60.5t-23.5 -75l-113 4q8 66 35 119t69.5 90.5t99.5 57.5t124 19q38 -1 74 -9.5t66 -25.5t53 -44.5t35 -65.5q49 64 113.5 104.5t148.5 39.5q78 -2 129.5 -35.5t81 -87t38.5 -120t1 -133.5l-29 -188h-514l-21 -134q-7 -55 -3 -111.5t25 -103t61.5 -76.5t108.5 -31 q33 0 63 7.5t57.5 21t53.5 31.5t51 38l27 -88q-54 -57 -125.5 -85t-150.5 -26zM245 79q32 0 61.5 10t56 27t49 39t41.5 46l57 335l-119 2q-57 -1 -106 -21.5t-86.5 -56t-60.5 -83.5t-29 -105q-3 -36 2.5 -70.5t22 -61.5t44 -44t67.5 -17zM636 636h408l14 110q4 41 -0.5 85.5 t-21.5 82t-48.5 62t-81.5 25.5q-65 2 -111 -30t-77 -81.5t-49 -108.5t-27 -111z" />
<glyph unicode="&#xe7;" d="M524 81q61 -2 116 15.5t100 50.5t77.5 80t48.5 106h113q-15 -81 -58.5 -147t-105.5 -112.5t-139 -71t-158 -22.5q-74 2 -133 24t-103 60t-73.5 89t-46 110t-21 124t2.5 130l5 43q9 70 31 138t56 129t80 112.5t102.5 88t123.5 56.5t144 18q83 -2 150.5 -31.5t115 -81 t72.5 -121.5t22 -152l-114 1q3 59 -13.5 110t-49 89t-80.5 60.5t-109 24.5q-92 3 -164 -35.5t-124 -101.5t-83.5 -143t-42.5 -161l-5 -42q-9 -73 -2 -149.5t36 -139.5t84.5 -104t144.5 -44zM551 -4l-22 -66q63 -14 100.5 -53.5t34.5 -108.5q-3 -62 -34.5 -101.5t-78.5 -62.5 t-102 -33t-105 -12l2 79q31 1 67.5 6.5t68.5 20t55 38.5t28 63q4 32 -9.5 51t-36 29.5t-50 15t-51.5 7.5l43 127h90z" />
<glyph unicode="&#xe8;" d="M539 -20q-109 3 -190 48t-132.5 118t-73.5 167t-12 194l5 44q9 69 32.5 137t59.5 130t84 115t106.5 91t126.5 59t143 19q103 -3 176 -46t117.5 -112t61 -157t6.5 -181l-9 -73h-786l-5 -24q-11 -76 2.5 -151t51.5 -135.5t99.5 -99t145.5 -41.5q99 -4 181.5 36t151.5 108 l71 -57q-78 -94 -185 -142.5t-228 -46.5zM682 1000q-81 3 -147 -28t-117.5 -82.5t-88.5 -118.5t-60 -136l663 -1l3 15q9 64 -3 126t-44.5 111.5t-84.5 80.5t-121 33zM777 1244h-95l-170 266h134z" />
<glyph unicode="&#xe9;" d="M539 -20q-109 3 -190 48t-132.5 118t-73.5 167t-12 194l5 44q9 69 32.5 137t59.5 130t84 115t106.5 91t126.5 59t143 19q103 -3 176 -46t117.5 -112t61 -157t6.5 -181l-9 -73h-786l-5 -24q-11 -76 2.5 -151t51.5 -135.5t99.5 -99t145.5 -41.5q99 -4 181.5 36t151.5 108 l71 -57q-78 -94 -185 -142.5t-228 -46.5zM682 1000q-81 3 -147 -28t-117.5 -82.5t-88.5 -118.5t-60 -136l663 -1l3 15q9 64 -3 126t-44.5 111.5t-84.5 80.5t-121 33zM875 1508h151l-266 -265h-106z" />
<glyph unicode="&#xea;" d="M539 -20q-109 3 -190 48t-132.5 118t-73.5 167t-12 194l5 44q9 69 32.5 137t59.5 130t84 115t106.5 91t126.5 59t143 19q103 -3 176 -46t117.5 -112t61 -157t6.5 -181l-9 -73h-786l-5 -24q-11 -76 2.5 -151t51.5 -135.5t99.5 -99t145.5 -41.5q99 -4 181.5 36t151.5 108 l71 -57q-78 -94 -185 -142.5t-228 -46.5zM682 1000q-81 3 -147 -28t-117.5 -82.5t-88.5 -118.5t-60 -136l663 -1l3 15q9 64 -3 126t-44.5 111.5t-84.5 80.5t-121 33zM1000 1288l-2 -18h-107l-133 172l-192 -171l-109 -1l2 20l267 239h73z" />
<glyph unicode="&#xeb;" d="M539 -20q-109 3 -190 48t-132.5 118t-73.5 167t-12 194l5 44q9 69 32.5 137t59.5 130t84 115t106.5 91t126.5 59t143 19q103 -3 176 -46t117.5 -112t61 -157t6.5 -181l-9 -73h-786l-5 -24q-11 -76 2.5 -151t51.5 -135.5t99.5 -99t145.5 -41.5q99 -4 181.5 36t151.5 108 l71 -57q-78 -94 -185 -142.5t-228 -46.5zM682 1000q-81 3 -147 -28t-117.5 -82.5t-88.5 -118.5t-60 -136l663 -1l3 15q9 64 -3 126t-44.5 111.5t-84.5 80.5t-121 33zM446 1408q1 16 8.5 31t19 26t26 18t31.5 7q34 0 57 -24t20 -58q-2 -33 -27 -56t-58 -24q-34 0 -56.5 23 t-20.5 57zM871 1407q1 16 8 31t18.5 26t26.5 18t32 7q34 0 56.5 -24t20.5 -58q-2 -33 -27.5 -56t-57.5 -24q-34 0 -56.5 23t-20.5 57z" />
<glyph unicode="&#xec;" d="M297 1082h490l-170 -976h358l-19 -106h-847l19 106h370l151 869h-371zM815 1254h-95l-170 266h134z" />
<glyph unicode="&#xed;" d="M297 1082h490l-170 -976h358l-19 -106h-847l19 106h370l151 869h-371zM913 1518h151l-266 -265h-106z" />
<glyph unicode="&#xee;" d="M297 1082h490l-170 -976h358l-19 -106h-847l19 106h370l151 869h-371zM1038 1298l-2 -18h-107l-133 172l-192 -171l-109 -1l2 20l267 239h73z" />
<glyph unicode="&#xef;" d="M297 1082h490l-170 -976h358l-19 -106h-847l19 106h370l151 869h-371zM484 1418q1 16 8.5 31t19 26t26 18t31.5 7q34 0 57 -24t20 -58q-2 -33 -27 -56t-58 -24q-34 0 -56.5 23t-20.5 57zM909 1417q1 16 8 31t18.5 26t26.5 18t32 7q34 0 56.5 -24t20.5 -58 q-2 -33 -27.5 -56t-57.5 -24q-34 0 -56.5 23t-20.5 57z" />
<glyph unicode="&#xf0;" d="M893 1291q46 -77 75 -158t42.5 -165t13.5 -170.5t-12 -174.5l-10 -71q-16 -108 -61 -212t-116.5 -185t-168.5 -129.5t-217 -45.5q-97 2 -172 43t-124 107t-70.5 151.5t-12.5 176.5q11 107 55.5 200.5t115.5 162.5t165 108t205 36q89 -2 170 -39t135 -109q2 112 -27.5 218 t-93.5 199l-269 -139l-40 80l244 124q-52 51 -114 86.5t-129 61.5l49 102q86 -32 163 -78.5t143 -111.5l244 125l41 -79zM896 688q-18 45 -50.5 78t-73 54t-86.5 31t-92 11q-86 2 -158 -30.5t-126 -88.5t-87.5 -130t-42.5 -155q-8 -68 5.5 -134t47 -119t88 -86.5 t129.5 -35.5q96 -3 171 38.5t128.5 109.5t86 152.5t44.5 168.5l10 74z" />
<glyph unicode="&#xf1;" d="M380 1082l-34 -203q34 49 75.5 90.5t90.5 71.5t104.5 46t117.5 15q88 -2 149 -36.5t96 -90.5t47 -129t3 -153l-116 -693h-119l116 692q7 60 0.5 114.5t-30.5 96.5t-68.5 67.5t-112.5 27.5q-62 1 -116.5 -18.5t-101 -53t-84.5 -78.5t-66 -96l-130 -752h-119l188 1082h110z M1051 1505q-6 -39 -21 -77t-39.5 -67t-59 -47t-79.5 -18q-39 0 -70.5 18t-61 39.5t-60.5 39t-68 16.5q-27 0 -47.5 -10.5t-35.5 -27t-25 -37.5t-17 -44l-80 13q7 40 23.5 77t42 65.5t61 45t79.5 16.5q39 -1 70.5 -19t61.5 -39.5t61 -38.5t69 -16q27 1 47 12t35 28t25 39 t16 45z" />
<glyph unicode="&#xf2;" d="M119 550q9 71 32 140t58 131t82.5 114.5t105.5 90t126 58t146 18.5q74 -2 133.5 -24.5t105 -60.5t77 -90t49.5 -111.5t23.5 -124.5t-1.5 -131l-4 -34q-14 -107 -58.5 -206.5t-115 -176t-166 -121.5t-210.5 -42q-110 3 -188.5 50t-126 122.5t-65.5 171t-7 193.5zM234 516 q-8 -73 1 -149t41 -139t88.5 -104t143.5 -44q92 -3 166 36t128 103t87 145t45 163l4 32q8 73 -1 150t-41 141t-89 106t-144 45q-93 3 -166.5 -37t-127.5 -104.5t-87 -146.5t-44 -163zM767 1243h-95l-170 266h134z" />
<glyph unicode="&#xf3;" d="M119 550q9 71 32 140t58 131t82.5 114.5t105.5 90t126 58t146 18.5q74 -2 133.5 -24.5t105 -60.5t77 -90t49.5 -111.5t23.5 -124.5t-1.5 -131l-4 -34q-14 -107 -58.5 -206.5t-115 -176t-166 -121.5t-210.5 -42q-110 3 -188.5 50t-126 122.5t-65.5 171t-7 193.5zM234 516 q-8 -73 1 -149t41 -139t88.5 -104t143.5 -44q92 -3 166 36t128 103t87 145t45 163l4 32q8 73 -1 150t-41 141t-89 106t-144 45q-93 3 -166.5 -37t-127.5 -104.5t-87 -146.5t-44 -163zM865 1507h151l-266 -265h-106z" />
<glyph unicode="&#xf4;" d="M119 550q9 71 32 140t58 131t82.5 114.5t105.5 90t126 58t146 18.5q74 -2 133.5 -24.5t105 -60.5t77 -90t49.5 -111.5t23.5 -124.5t-1.5 -131l-4 -34q-14 -107 -58.5 -206.5t-115 -176t-166 -121.5t-210.5 -42q-110 3 -188.5 50t-126 122.5t-65.5 171t-7 193.5zM234 516 q-8 -73 1 -149t41 -139t88.5 -104t143.5 -44q92 -3 166 36t128 103t87 145t45 163l4 32q8 73 -1 150t-41 141t-89 106t-144 45q-93 3 -166.5 -37t-127.5 -104.5t-87 -146.5t-44 -163zM990 1287l-2 -18h-107l-133 172l-192 -171l-109 -1l2 20l267 239h73z" />
<glyph unicode="&#xf5;" d="M119 550q9 71 32 140t58 131t82.5 114.5t105.5 90t126 58t146 18.5q74 -2 133.5 -24.5t105 -60.5t77 -90t49.5 -111.5t23.5 -124.5t-1.5 -131l-4 -34q-14 -107 -58.5 -206.5t-115 -176t-166 -121.5t-210.5 -42q-110 3 -188.5 50t-126 122.5t-65.5 171t-7 193.5zM234 516 q-8 -73 1 -149t41 -139t88.5 -104t143.5 -44q92 -3 166 36t128 103t87 145t45 163l4 32q8 73 -1 150t-41 141t-89 106t-144 45q-93 3 -166.5 -37t-127.5 -104.5t-87 -146.5t-44 -163zM1060 1505q-6 -39 -21 -77t-39.5 -67t-59 -47t-79.5 -18q-39 0 -70.5 18t-61 39.5 t-60.5 39t-68 16.5q-27 0 -47.5 -10.5t-35.5 -27t-25 -37.5t-17 -44l-80 13q7 40 23.5 77t42 65.5t61 45t79.5 16.5q39 -1 70.5 -19t61.5 -39.5t61 -38.5t69 -16q27 1 47 12t35 28t25 39t16 45z" />
<glyph unicode="&#xf6;" d="M119 550q9 71 32 140t58 131t82.5 114.5t105.5 90t126 58t146 18.5q74 -2 133.5 -24.5t105 -60.5t77 -90t49.5 -111.5t23.5 -124.5t-1.5 -131l-4 -34q-14 -107 -58.5 -206.5t-115 -176t-166 -121.5t-210.5 -42q-110 3 -188.5 50t-126 122.5t-65.5 171t-7 193.5zM234 516 q-8 -73 1 -149t41 -139t88.5 -104t143.5 -44q92 -3 166 36t128 103t87 145t45 163l4 32q8 73 -1 150t-41 141t-89 106t-144 45q-93 3 -166.5 -37t-127.5 -104.5t-87 -146.5t-44 -163zM436 1407q1 16 8.5 31t19 26t26 18t31.5 7q34 0 57 -24t20 -58q-2 -33 -27 -56t-58 -24 q-34 0 -56.5 23t-20.5 57zM861 1406q1 16 8 31t18.5 26t26.5 18t32 7q34 0 56.5 -24t20.5 -58q-2 -33 -27.5 -56t-57.5 -24q-34 0 -56.5 23t-20.5 57z" />
<glyph unicode="&#xf7;" d="M1089 644h-971l20 116h971zM606 1087q3 33 27.5 57t58.5 25q17 0 31.5 -6t25 -17.5t16 -26.5t4.5 -32q-3 -33 -28.5 -56t-57.5 -24q-34 -1 -56.5 22.5t-20.5 57.5zM468 292q1 16 8.5 30.5t19 25.5t26 18t31.5 7q34 1 56.5 -23t20.5 -58q-1 -17 -8.5 -31.5t-19 -25.5 t-27 -17.5t-31.5 -6.5q-34 -1 -56.5 23t-19.5 58z" />
<glyph unicode="&#xf8;" d="M119 550q9 71 32 140t58 131t82.5 114.5t105.5 90t126 58t146 18.5q54 -2 100 -14t85 -34l103 159h93l-133 -205q43 -39 72.5 -90t46.5 -109.5t22 -121.5t-2 -127l-4 -34q-14 -107 -58.5 -206.5t-115 -176t-166 -121.5t-210.5 -42q-63 2 -114 17.5t-93 43.5l-116 -180 h-102l153 235q-36 39 -60.5 87.5t-39 103t-18 113t2.5 117.5zM938 559q5 46 3.5 94t-11.5 94.5t-28.5 88.5t-46.5 75l-502 -779q30 -23 68.5 -36.5t86.5 -15.5q92 -3 166 36t128 103t87 145t45 163zM234 516q-5 -41 -4 -84t8 -84.5t21 -80.5t36 -72l500 768q-27 17 -60 26.5 t-72 11.5q-93 3 -166.5 -37t-127.5 -104.5t-87 -146.5t-44 -163z" />
<glyph unicode="&#xf9;" d="M823 169q-68 -91 -160.5 -141.5t-207.5 -47.5q-92 2 -153 40t-95 99t-43.5 138.5t-0.5 158.5l112 666h118l-112 -669q-7 -58 -3.5 -116t24.5 -104.5t62.5 -76.5t111.5 -32q55 -2 112.5 12.5t108 44t89 73t55.5 100.5l130 768h121l-189 -1082h-111zM749 1235h-95l-170 266 h134z" />
<glyph unicode="&#xfa;" d="M823 169q-68 -91 -160.5 -141.5t-207.5 -47.5q-92 2 -153 40t-95 99t-43.5 138.5t-0.5 158.5l112 666h118l-112 -669q-7 -58 -3.5 -116t24.5 -104.5t62.5 -76.5t111.5 -32q55 -2 112.5 12.5t108 44t89 73t55.5 100.5l130 768h121l-189 -1082h-111zM847 1499h151 l-266 -265h-106z" />
<glyph unicode="&#xfb;" d="M823 169q-68 -91 -160.5 -141.5t-207.5 -47.5q-92 2 -153 40t-95 99t-43.5 138.5t-0.5 158.5l112 666h118l-112 -669q-7 -58 -3.5 -116t24.5 -104.5t62.5 -76.5t111.5 -32q55 -2 112.5 12.5t108 44t89 73t55.5 100.5l130 768h121l-189 -1082h-111zM972 1279l-2 -18h-107 l-133 172l-192 -171l-109 -1l2 20l267 239h73z" />
<glyph unicode="&#xfc;" d="M823 169q-68 -91 -160.5 -141.5t-207.5 -47.5q-92 2 -153 40t-95 99t-43.5 138.5t-0.5 158.5l112 666h118l-112 -669q-7 -58 -3.5 -116t24.5 -104.5t62.5 -76.5t111.5 -32q55 -2 112.5 12.5t108 44t89 73t55.5 100.5l130 768h121l-189 -1082h-111zM419 1399q1 16 8.5 31 t19 26t26 18t31.5 7q34 0 57 -24t20 -58q-2 -33 -27 -56t-58 -24q-34 0 -56.5 23t-20.5 57zM844 1398q1 16 8 31t18.5 26t26.5 18t32 7q34 0 56.5 -24t20.5 -58q-2 -33 -27.5 -56t-57.5 -24q-34 0 -56.5 23t-20.5 57z" />
<glyph unicode="&#xfd;" d="M514 220l9 -59l540 921h140l-758 -1256q-30 -53 -67.5 -101.5t-83.5 -85t-101 -58t-121 -20.5q-26 0 -52.5 4.5t-52.5 11.5l26 98q20 -3 41 -6t42 -3q47 0 86.5 17t72.5 45.5t60 65t49 73.5l103 168l-287 1047l124 1zM879 1499h151l-266 -265h-106z" />
<glyph unicode="&#xfe;" d="M1026 535q-9 -65 -27.5 -131.5t-47 -129t-68 -117t-90.5 -95t-114 -63t-139 -20.5q-93 2 -174.5 41.5t-133.5 117.5l-100 -554h-119l340 1962h120l-114 -613q67 81 155 126.5t195 42.5q72 -2 126 -27t91.5 -66t61 -94.5t34.5 -113.5t12 -122.5t-6 -121.5zM909 557 q5 44 6 93.5t-6 98t-22.5 93t-43.5 78.5t-69 55t-98 23q-55 2 -103.5 -13t-90.5 -42t-77.5 -64.5t-63.5 -81.5l-90 -533q34 -85 105.5 -133.5t163.5 -50.5t159.5 39.5t114 108.5t74 148.5t38.5 159.5z" />
<glyph unicode="&#xff;" d="M514 220l9 -59l540 921h140l-758 -1256q-30 -53 -67.5 -101.5t-83.5 -85t-101 -58t-121 -20.5q-26 0 -52.5 4.5t-52.5 11.5l26 98q20 -3 41 -6t42 -3q47 0 86.5 17t72.5 45.5t60 65t49 73.5l103 168l-287 1047l124 1zM450 1399q1 16 8.5 31t19 26t26 18t31.5 7 q34 0 57 -24t20 -58q-2 -33 -27 -56t-58 -24q-34 0 -56.5 23t-20.5 57zM875 1398q1 16 8 31t18.5 26t26.5 18t32 7q34 0 56.5 -24t20.5 -58q-2 -33 -27.5 -56t-57.5 -24q-34 0 -56.5 23t-20.5 57z" />
<glyph unicode="&#x100;" d="M845 406h-534l-196 -406h-125l713 1456h107l204 -1456h-115zM362 513h469l-101 761zM1119 1689h-652l15 97h653z" />
<glyph unicode="&#x101;" d="M810 0q-5 39 -3.5 77.5t7.5 78.5q-78 -82 -179 -130t-217 -46q-65 2 -122.5 23t-100 59.5t-65.5 93t-19 123.5t30 122t67 92t94.5 65.5t112.5 42t120 22.5t119 7l233 -1l18 124q6 59 -10 104.5t-49 77t-80 48.5t-103 19q-55 1 -107 -12t-95 -40.5t-75 -69t-46 -96.5h-117 q13 80 57 140t106 100t137 59.5t151 18.5q78 -2 145.5 -26t115.5 -69t72.5 -109.5t16.5 -147.5l-87 -524q-9 -55 -7 -107t4 -106l-1 -13h-123zM436 86q61 -2 118 12t107.5 42t93.5 68.5t76 90.5l41 238l-203 1q-43 0 -90.5 -3.5t-94.5 -13.5t-91 -28t-78.5 -45.5t-57 -66.5 t-27.5 -92q-5 -48 10.5 -85t44 -63t68 -40t83.5 -15zM1068 1368h-652l15 97h653z" />
<glyph unicode="&#x102;" d="M845 406h-534l-196 -406h-125l713 1456h107l204 -1456h-115zM362 513h469l-101 761zM1098 1838q-9 -60 -34.5 -108t-65 -82t-91 -51.5t-112.5 -16.5q-58 1 -105.5 19.5t-81 52.5t-51 81t-16.5 105l100 -1q-2 -77 37 -123t119 -48q42 -1 75 11t58.5 34.5t43 54.5t27.5 70z " />
<glyph unicode="&#x103;" d="M810 0q-5 39 -3.5 77.5t7.5 78.5q-78 -82 -179 -130t-217 -46q-65 2 -122.5 23t-100 59.5t-65.5 93t-19 123.5t30 122t67 92t94.5 65.5t112.5 42t120 22.5t119 7l233 -1l18 124q6 59 -10 104.5t-49 77t-80 48.5t-103 19q-55 1 -107 -12t-95 -40.5t-75 -69t-46 -96.5h-117 q13 80 57 140t106 100t137 59.5t151 18.5q78 -2 145.5 -26t115.5 -69t72.5 -109.5t16.5 -147.5l-87 -524q-9 -55 -7 -107t4 -106l-1 -13h-123zM436 86q61 -2 118 12t107.5 42t93.5 68.5t76 90.5l41 238l-203 1q-43 0 -90.5 -3.5t-94.5 -13.5t-91 -28t-78.5 -45.5t-57 -66.5 t-27.5 -92q-5 -48 10.5 -85t44 -63t68 -40t83.5 -15zM1047 1517q-9 -60 -34.5 -108t-65 -82t-91 -51.5t-112.5 -16.5q-58 1 -105.5 19.5t-81 52.5t-51 81t-16.5 105l100 -1q-2 -77 37 -123t119 -48q42 -1 75 11t58.5 34.5t43 54.5t27.5 70z" />
<glyph unicode="&#x104;" d="M988 0l4 -2q-32 -19 -68 -43t-67 -53.5t-52.5 -64.5t-24.5 -77q-2 -35 15.5 -55.5t52.5 -22.5q29 -1 56 9t52 23l16 -85q-34 -20 -71 -31t-77 -11q-36 0 -65 12t-49 33.5t-30.5 51t-8.5 64.5q2 47 23 87.5t53 75t71.5 62.5t77.5 51l-51 382h-534l-196 -406h-125l713 1456 h107l204 -1456h-26zM362 513h469l-101 761z" />
<glyph unicode="&#x105;" d="M896 0l4 -2q-32 -19 -68 -43t-67 -53.5t-52.5 -64.5t-24.5 -77q-2 -35 15.5 -55.5t52.5 -22.5q29 -1 56 9t52 23l16 -85q-34 -20 -71 -31t-77 -11q-36 0 -65 12t-49 33.5t-30.5 51t-8.5 64.5q2 48 23.5 89t54 75.5t72.5 62.5t78 51q-2 32 0 64.5t7 65.5 q-78 -82 -179 -130t-217 -46q-65 2 -122.5 23t-100 59.5t-65.5 93t-19 123.5t30 122t67 92t94.5 65.5t112.5 42t120 22.5t119 7l233 -1l18 124q6 59 -10 104.5t-49 77t-80 48.5t-103 19q-55 1 -107 -12t-95 -40.5t-75 -69t-46 -96.5h-117q13 80 57 140t106 100t137 59.5 t151 18.5q78 -2 145.5 -26t115.5 -69t72.5 -109.5t16.5 -147.5l-87 -524q-9 -55 -7 -107t4 -106l-1 -13h-37zM436 86q61 -2 118 12t107.5 42t93.5 68.5t76 90.5l41 238l-203 1q-43 0 -90.5 -3.5t-94.5 -13.5t-91 -28t-78.5 -45.5t-57 -66.5t-27.5 -92q-5 -48 10.5 -85 t44 -63t68 -40t83.5 -15z" />
<glyph unicode="&#x106;" d="M1032 443q-22 -96 -67.5 -181.5t-112 -149t-153.5 -99.5t-192 -33q-84 3 -147.5 32t-109 77.5t-74.5 112t-43.5 134t-16 144t8.5 142.5l34 211q13 75 36.5 152.5t59.5 149.5t83.5 135t108 109.5t134 72.5t160.5 24q100 -2 174 -40.5t123.5 -102t74 -147t25.5 -176.5h-117 q-2 68 -18 133t-49.5 116t-87.5 82.5t-131 33.5q-71 2 -129.5 -21t-106 -63.5t-83.5 -94.5t-63 -114.5t-45 -124t-28 -122.5l-36 -214q-8 -52 -9.5 -111.5t5.5 -118.5t25 -114t50.5 -97.5t81 -69.5t116.5 -29q84 -3 149.5 25.5t115.5 78.5t85.5 117t58.5 139zM949 1850h151 l-266 -265h-106z" />
<glyph unicode="&#x107;" d="M524 81q61 -2 116 15.5t100 50.5t77.5 80t48.5 106h113q-15 -81 -58.5 -147t-105.5 -112.5t-139 -71t-158 -22.5q-74 2 -133 24t-103 60t-73.5 89t-46 110t-21 124t2.5 130l5 43q9 70 31 138t56 129t80 112.5t102.5 88t123.5 56.5t144 18q83 -2 150.5 -31.5t115 -81 t72.5 -121.5t22 -152l-114 1q3 59 -13.5 110t-49 89t-80.5 60.5t-109 24.5q-92 3 -164 -35.5t-124 -101.5t-83.5 -143t-42.5 -161l-5 -42q-9 -73 -2 -149.5t36 -139.5t84.5 -104t144.5 -44zM889 1507h151l-266 -265h-106z" />
<glyph unicode="&#x108;" d="M1032 443q-22 -96 -67.5 -181.5t-112 -149t-153.5 -99.5t-192 -33q-84 3 -147.5 32t-109 77.5t-74.5 112t-43.5 134t-16 144t8.5 142.5l34 211q13 75 36.5 152.5t59.5 149.5t83.5 135t108 109.5t134 72.5t160.5 24q100 -2 174 -40.5t123.5 -102t74 -147t25.5 -176.5h-117 q-2 68 -18 133t-49.5 116t-87.5 82.5t-131 33.5q-71 2 -129.5 -21t-106 -63.5t-83.5 -94.5t-63 -114.5t-45 -124t-28 -122.5l-36 -214q-8 -52 -9.5 -111.5t5.5 -118.5t25 -114t50.5 -97.5t81 -69.5t116.5 -29q84 -3 149.5 25.5t115.5 78.5t85.5 117t58.5 139zM1074 1630 l-2 -18h-107l-133 172l-192 -171l-109 -1l2 20l267 239h73z" />
<glyph unicode="&#x109;" d="M524 81q61 -2 116 15.5t100 50.5t77.5 80t48.5 106h113q-15 -81 -58.5 -147t-105.5 -112.5t-139 -71t-158 -22.5q-74 2 -133 24t-103 60t-73.5 89t-46 110t-21 124t2.5 130l5 43q9 70 31 138t56 129t80 112.5t102.5 88t123.5 56.5t144 18q83 -2 150.5 -31.5t115 -81 t72.5 -121.5t22 -152l-114 1q3 59 -13.5 110t-49 89t-80.5 60.5t-109 24.5q-92 3 -164 -35.5t-124 -101.5t-83.5 -143t-42.5 -161l-5 -42q-9 -73 -2 -149.5t36 -139.5t84.5 -104t144.5 -44zM1014 1287l-2 -18h-107l-133 172l-192 -171l-109 -1l2 20l267 239h73z" />
<glyph unicode="&#x10a;" d="M1032 443q-22 -96 -67.5 -181.5t-112 -149t-153.5 -99.5t-192 -33q-84 3 -147.5 32t-109 77.5t-74.5 112t-43.5 134t-16 144t8.5 142.5l34 211q13 75 36.5 152.5t59.5 149.5t83.5 135t108 109.5t134 72.5t160.5 24q100 -2 174 -40.5t123.5 -102t74 -147t25.5 -176.5h-117 q-2 68 -18 133t-49.5 116t-87.5 82.5t-131 33.5q-71 2 -129.5 -21t-106 -63.5t-83.5 -94.5t-63 -114.5t-45 -124t-28 -122.5l-36 -214q-8 -52 -9.5 -111.5t5.5 -118.5t25 -114t50.5 -97.5t81 -69.5t116.5 -29q84 -3 149.5 25.5t115.5 78.5t85.5 117t58.5 139zM731 1732 q3 35 28.5 59t60.5 25q36 1 59.5 -23.5t20.5 -60.5q-2 -35 -28 -58.5t-61 -24.5q-18 0 -33 6t-26 17t-16.5 26.5t-4.5 33.5z" />
<glyph unicode="&#x10b;" d="M524 81q61 -2 116 15.5t100 50.5t77.5 80t48.5 106h113q-15 -81 -58.5 -147t-105.5 -112.5t-139 -71t-158 -22.5q-74 2 -133 24t-103 60t-73.5 89t-46 110t-21 124t2.5 130l5 43q9 70 31 138t56 129t80 112.5t102.5 88t123.5 56.5t144 18q83 -2 150.5 -31.5t115 -81 t72.5 -121.5t22 -152l-114 1q3 59 -13.5 110t-49 89t-80.5 60.5t-109 24.5q-92 3 -164 -35.5t-124 -101.5t-83.5 -143t-42.5 -161l-5 -42q-9 -73 -2 -149.5t36 -139.5t84.5 -104t144.5 -44zM671 1389q3 35 28.5 59t60.5 25q36 1 59.5 -23.5t20.5 -60.5q-2 -35 -28 -58.5 t-61 -24.5q-18 0 -33 6t-26 17t-16.5 26.5t-4.5 33.5z" />
<glyph unicode="&#x10c;" d="M1032 443q-22 -96 -67.5 -181.5t-112 -149t-153.5 -99.5t-192 -33q-84 3 -147.5 32t-109 77.5t-74.5 112t-43.5 134t-16 144t8.5 142.5l34 211q13 75 36.5 152.5t59.5 149.5t83.5 135t108 109.5t134 72.5t160.5 24q100 -2 174 -40.5t123.5 -102t74 -147t25.5 -176.5h-117 q-2 68 -18 133t-49.5 116t-87.5 82.5t-131 33.5q-71 2 -129.5 -21t-106 -63.5t-83.5 -94.5t-63 -114.5t-45 -124t-28 -122.5l-36 -214q-8 -52 -9.5 -111.5t5.5 -118.5t25 -114t50.5 -97.5t81 -69.5t116.5 -29q84 -3 149.5 25.5t115.5 78.5t85.5 117t58.5 139zM803 1690 l201 182l107 1l-1 -16l-267 -248h-85l-193 247l2 18l104 -1z" />
<glyph unicode="&#x10d;" d="M524 81q61 -2 116 15.5t100 50.5t77.5 80t48.5 106h113q-15 -81 -58.5 -147t-105.5 -112.5t-139 -71t-158 -22.5q-74 2 -133 24t-103 60t-73.5 89t-46 110t-21 124t2.5 130l5 43q9 70 31 138t56 129t80 112.5t102.5 88t123.5 56.5t144 18q83 -2 150.5 -31.5t115 -81 t72.5 -121.5t22 -152l-114 1q3 59 -13.5 110t-49 89t-80.5 60.5t-109 24.5q-92 3 -164 -35.5t-124 -101.5t-83.5 -143t-42.5 -161l-5 -42q-9 -73 -2 -149.5t36 -139.5t84.5 -104t144.5 -44zM743 1347l201 182l107 1l-1 -16l-267 -248h-85l-193 247l2 18l104 -1z" />
<glyph unicode="&#x10e;" d="M66 0l253 1456l335 -1q133 -4 229.5 -61.5t155 -149.5t80 -208t5.5 -237l-22 -143q-21 -131 -78 -250t-145 -209t-204.5 -143.5t-257.5 -53.5h-351zM421 1354l-218 -1253l217 -1q118 1 213.5 47.5t167 123.5t117.5 177t64 208l23 147q9 63 6.5 128t-17 125t-42.5 113 t-70.5 92.5t-99.5 64t-131 27.5zM725 1669l201 182l107 1l-1 -16l-267 -248h-85l-193 247l2 18l104 -1z" />
<glyph unicode="&#x10f;" horiz-adv-x="1352" d="M143 545q9 67 28.5 134.5t49.5 130.5t71.5 117t94.5 94t117.5 61.5t141.5 19.5q92 -2 167.5 -44.5t121.5 -123.5l108 602h118l-266 -1536h-112l27 140q-65 -77 -149.5 -120t-187.5 -40q-71 2 -125.5 27t-93.5 65.5t-64.5 94t-38.5 113.5t-15.5 122.5t4.5 121.5zM260 524 q-6 -46 -6 -96t7.5 -98t24 -91.5t45 -77t70 -54.5t99.5 -23q52 -2 99 11.5t87.5 38t75 59.5t62.5 77l89 526q-14 43 -37.5 80t-55.5 63.5t-72 42t-87 17.5q-63 2 -114.5 -16.5t-93 -51t-74 -77t-55.5 -95.5t-38.5 -106t-22.5 -108zM1527 1422q-16 -99 -64 -183t-122 -150 l-69 56q51 61 86 128.5t49 145.5l22 126h117z" />
<glyph unicode="&#x110;" horiz-adv-x="1232" d="M96 0l119 689h-243l18 102h243l116 665l335 -1q133 -4 229.5 -61.5t155 -149.5t80 -208t5.5 -237l-22 -143q-21 -131 -78 -250t-145 -209t-204.5 -143.5t-257.5 -53.5h-351zM568 689h-233l-102 -588l217 -1q118 1 213.5 47.5t167 123.5t117.5 177t64 208l23 147 q9 63 6.5 128t-17 125t-42.5 113t-70.5 92.5t-99.5 64t-131 27.5l-230 1l-98 -563h234z" />
<glyph unicode="&#x111;" horiz-adv-x="1232" d="M1297 1257h-185l-217 -1257h-112l27 140q-65 -77 -149.5 -120t-187.5 -40q-71 2 -125.5 27t-93.5 65.5t-64.5 94t-38.5 113.5t-15.5 122.5t4.5 121.5l3 21q9 67 28.5 134.5t49.5 130.5t71.5 117t94.5 94t117.5 61.5t141.5 19.5q92 -2 167.5 -44.5t121.5 -123.5l58 323 h-292l18 102h292l32 177h118l-31 -177h186zM260 524q-6 -46 -6 -96t7.5 -98t24 -91.5t45 -77t70 -54.5t99.5 -23q52 -2 99 11.5t87.5 38t75 59.5t62.5 77l89 526q-14 43 -37.5 80t-55.5 63.5t-72 42t-87 17.5q-63 2 -114.5 -16.5t-93 -51t-74 -77t-55.5 -95.5t-38.5 -106 t-22.5 -108z" />
<glyph unicode="&#x112;" d="M952 698h-623l-103 -594h718l-18 -104h-836l252 1456h833l-19 -105h-714l-95 -549h623zM1065 1689h-652l15 97h653z" />
<glyph unicode="&#x113;" d="M539 -20q-109 3 -190 48t-132.5 118t-73.5 167t-12 194l5 44q9 69 32.5 137t59.5 130t84 115t106.5 91t126.5 59t143 19q103 -3 176 -46t117.5 -112t61 -157t6.5 -181l-9 -73h-786l-5 -24q-11 -76 2.5 -151t51.5 -135.5t99.5 -99t145.5 -41.5q99 -4 181.5 36t151.5 108 l71 -57q-78 -94 -185 -142.5t-228 -46.5zM682 1000q-81 3 -147 -28t-117.5 -82.5t-88.5 -118.5t-60 -136l663 -1l3 15q9 64 -3 126t-44.5 111.5t-84.5 80.5t-121 33zM1060 1368h-652l15 97h653z" />
<glyph unicode="&#x114;" d="M952 698h-623l-103 -594h718l-18 -104h-836l252 1456h833l-19 -105h-714l-95 -549h623zM1044 1838q-9 -60 -34.5 -108t-65 -82t-91 -51.5t-112.5 -16.5q-58 1 -105.5 19.5t-81 52.5t-51 81t-16.5 105l100 -1q-2 -77 37 -123t119 -48q42 -1 75 11t58.5 34.5t43 54.5 t27.5 70z" />
<glyph unicode="&#x115;" d="M539 -20q-109 3 -190 48t-132.5 118t-73.5 167t-12 194l5 44q9 69 32.5 137t59.5 130t84 115t106.5 91t126.5 59t143 19q103 -3 176 -46t117.5 -112t61 -157t6.5 -181l-9 -73h-786l-5 -24q-11 -76 2.5 -151t51.5 -135.5t99.5 -99t145.5 -41.5q99 -4 181.5 36t151.5 108 l71 -57q-78 -94 -185 -142.5t-228 -46.5zM682 1000q-81 3 -147 -28t-117.5 -82.5t-88.5 -118.5t-60 -136l663 -1l3 15q9 64 -3 126t-44.5 111.5t-84.5 80.5t-121 33zM1039 1517q-9 -60 -34.5 -108t-65 -82t-91 -51.5t-112.5 -16.5q-58 1 -105.5 19.5t-81 52.5t-51 81 t-16.5 105l100 -1q-2 -77 37 -123t119 -48q42 -1 75 11t58.5 34.5t43 54.5t27.5 70z" />
<glyph unicode="&#x116;" d="M952 698h-623l-103 -594h718l-18 -104h-836l252 1456h833l-19 -105h-714l-95 -549h623zM662 1711q3 35 28.5 59t60.5 25q36 1 59.5 -23.5t20.5 -60.5q-2 -35 -28 -58.5t-61 -24.5q-18 0 -33 6t-26 17t-16.5 26.5t-4.5 33.5z" />
<glyph unicode="&#x117;" d="M539 -20q-109 3 -190 48t-132.5 118t-73.5 167t-12 194l5 44q9 69 32.5 137t59.5 130t84 115t106.5 91t126.5 59t143 19q103 -3 176 -46t117.5 -112t61 -157t6.5 -181l-9 -73h-786l-5 -24q-11 -76 2.5 -151t51.5 -135.5t99.5 -99t145.5 -41.5q99 -4 181.5 36t151.5 108 l71 -57q-78 -94 -185 -142.5t-228 -46.5zM682 1000q-81 3 -147 -28t-117.5 -82.5t-88.5 -118.5t-60 -136l663 -1l3 15q9 64 -3 126t-44.5 111.5t-84.5 80.5t-121 33zM657 1390q3 35 28.5 59t60.5 25q36 1 59.5 -23.5t20.5 -60.5q-2 -35 -28 -58.5t-61 -24.5q-18 0 -33 6 t-26 17t-16.5 26.5t-4.5 33.5z" />
<glyph unicode="&#x118;" d="M952 698h-623l-103 -594h718l-18 -104h-108l4 -2q-32 -19 -68 -43t-67 -53.5t-52.5 -64.5t-24.5 -77q-2 -35 15.5 -55.5t52.5 -22.5q29 -1 56 9t52 23l16 -85q-34 -20 -71 -31t-77 -11q-36 0 -65 12t-49 33.5t-30.5 51t-8.5 64.5q2 41 18.5 77.5t42.5 68t58.5 58 t66.5 48.5h-597l252 1456h833l-19 -105h-714l-95 -549h623z" />
<glyph unicode="&#x119;" d="M539 -20q-109 3 -190 48t-132.5 118t-73.5 167t-12 194l5 44q9 69 32.5 137t59.5 130t84 115t106.5 91t126.5 59t143 19q103 -3 176 -46t117.5 -112t61 -157t6.5 -181l-9 -73h-786l-5 -24q-11 -76 2.5 -151t51.5 -135.5t99.5 -99t145.5 -41.5q99 -4 181.5 36t151.5 108 l71 -57q-90 -107 -213 -154q-30 -19 -62 -41.5t-58 -50t-44 -60t-20 -69.5q-2 -35 15.5 -55.5t52.5 -22.5q29 -1 56 9t52 23l16 -85q-34 -20 -71 -31t-77 -11q-36 0 -65 12t-49 33.5t-30.5 51t-8.5 64.5q2 60 34.5 109.5t79.5 88.5h-21zM682 1000q-81 3 -147 -28 t-117.5 -82.5t-88.5 -118.5t-60 -136l663 -1l3 15q9 64 -3 126t-44.5 111.5t-84.5 80.5t-121 33z" />
<glyph unicode="&#x11a;" d="M952 698h-623l-103 -594h718l-18 -104h-836l252 1456h833l-19 -105h-714l-95 -549h623zM734 1669l201 182l107 1l-1 -16l-267 -248h-85l-193 247l2 18l104 -1z" />
<glyph unicode="&#x11b;" d="M539 -20q-109 3 -190 48t-132.5 118t-73.5 167t-12 194l5 44q9 69 32.5 137t59.5 130t84 115t106.5 91t126.5 59t143 19q103 -3 176 -46t117.5 -112t61 -157t6.5 -181l-9 -73h-786l-5 -24q-11 -76 2.5 -151t51.5 -135.5t99.5 -99t145.5 -41.5q99 -4 181.5 36t151.5 108 l71 -57q-78 -94 -185 -142.5t-228 -46.5zM682 1000q-81 3 -147 -28t-117.5 -82.5t-88.5 -118.5t-60 -136l663 -1l3 15q9 64 -3 126t-44.5 111.5t-84.5 80.5t-121 33zM729 1348l201 182l107 1l-1 -16l-267 -248h-85l-193 247l2 18l104 -1z" />
<glyph unicode="&#x11c;" d="M1000 174q-93 -101 -216.5 -149.5t-260.5 -43.5q-84 3 -149.5 32.5t-113.5 78t-79.5 112.5t-48.5 135t-20 146t7 146l33 204q13 75 37.5 152.5t61 149.5t85.5 134.5t110.5 108.5t136 72t161.5 24q93 -2 166 -36t123.5 -92.5t78 -136t28.5 -166.5h-115q-5 64 -24 122.5 t-53.5 103t-86.5 71.5t-123 29t-130 -20.5t-107.5 -62t-86 -92.5t-66 -113t-47.5 -123.5t-29 -122.5l-34 -207q-8 -55 -8 -115.5t9.5 -120t30.5 -113.5t56 -96.5t85.5 -69t118.5 -30.5q100 -5 192 24t162 102l64 376h-335l19 104h446zM1067 1630l-2 -18h-107l-133 172 l-192 -171l-109 -1l2 20l267 239h73z" />
<glyph unicode="&#x11d;" d="M145 545q9 67 28.5 134.5t49.5 130t70.5 117t93.5 94.5t117.5 62t141.5 20q94 -3 170 -46.5t122 -124.5l35 150h112l-182 -1063q-15 -96 -55.5 -179t-103.5 -144.5t-147 -95.5t-186 -31q-52 1 -101.5 14.5t-94 37.5t-82.5 58.5t-66 78.5l73 70q48 -70 115 -113.5 t154 -45.5q79 -2 142 24t110.5 73t78 110.5t44.5 136.5l25 123q-66 -74 -150 -116t-185 -40q-71 2 -125.5 26.5t-93.5 65.5t-64 94t-38.5 113t-15.5 122.5t5 121.5zM261 524q-6 -46 -6 -96t7.5 -98t24 -92t45 -77.5t70.5 -54t100 -22.5q52 -2 99 12t88 39.5t75.5 61.5 t61.5 78l88 517q-14 45 -37 82t-55 64.5t-72.5 43t-88.5 17.5q-63 2 -114.5 -16.5t-93 -51.5t-73.5 -77.5t-55 -95.5t-38 -105.5t-23 -107.5zM996 1287l-2 -18h-107l-133 172l-192 -171l-109 -1l2 20l267 239h73z" />
<glyph unicode="&#x11e;" d="M1000 174q-93 -101 -216.5 -149.5t-260.5 -43.5q-84 3 -149.5 32.5t-113.5 78t-79.5 112.5t-48.5 135t-20 146t7 146l33 204q13 75 37.5 152.5t61 149.5t85.5 134.5t110.5 108.5t136 72t161.5 24q93 -2 166 -36t123.5 -92.5t78 -136t28.5 -166.5h-115q-5 64 -24 122.5 t-53.5 103t-86.5 71.5t-123 29t-130 -20.5t-107.5 -62t-86 -92.5t-66 -113t-47.5 -123.5t-29 -122.5l-34 -207q-8 -55 -8 -115.5t9.5 -120t30.5 -113.5t56 -96.5t85.5 -69t118.5 -30.5q100 -5 192 24t162 102l64 376h-335l19 104h446zM1106 1859q-9 -60 -34.5 -108t-65 -82 t-91 -51.5t-112.5 -16.5q-58 1 -105.5 19.5t-81 52.5t-51 81t-16.5 105l100 -1q-2 -77 37 -123t119 -48q42 -1 75 11t58.5 34.5t43 54.5t27.5 70z" />
<glyph unicode="&#x11f;" d="M145 545q9 67 28.5 134.5t49.5 130t70.5 117t93.5 94.5t117.5 62t141.5 20q94 -3 170 -46.5t122 -124.5l35 150h112l-182 -1063q-15 -96 -55.5 -179t-103.5 -144.5t-147 -95.5t-186 -31q-52 1 -101.5 14.5t-94 37.5t-82.5 58.5t-66 78.5l73 70q48 -70 115 -113.5 t154 -45.5q79 -2 142 24t110.5 73t78 110.5t44.5 136.5l25 123q-66 -74 -150 -116t-185 -40q-71 2 -125.5 26.5t-93.5 65.5t-64 94t-38.5 113t-15.5 122.5t5 121.5zM261 524q-6 -46 -6 -96t7.5 -98t24 -92t45 -77.5t70.5 -54t100 -22.5q52 -2 99 12t88 39.5t75.5 61.5 t61.5 78l88 517q-14 45 -37 82t-55 64.5t-72.5 43t-88.5 17.5q-63 2 -114.5 -16.5t-93 -51.5t-73.5 -77.5t-55 -95.5t-38 -105.5t-23 -107.5zM1035 1516q-9 -60 -34.5 -108t-65 -82t-91 -51.5t-112.5 -16.5q-58 1 -105.5 19.5t-81 52.5t-51 81t-16.5 105l100 -1 q-2 -77 37 -123t119 -48q42 -1 75 11t58.5 34.5t43 54.5t27.5 70z" />
<glyph unicode="&#x120;" d="M1000 174q-93 -101 -216.5 -149.5t-260.5 -43.5q-84 3 -149.5 32.5t-113.5 78t-79.5 112.5t-48.5 135t-20 146t7 146l33 204q13 75 37.5 152.5t61 149.5t85.5 134.5t110.5 108.5t136 72t161.5 24q93 -2 166 -36t123.5 -92.5t78 -136t28.5 -166.5h-115q-5 64 -24 122.5 t-53.5 103t-86.5 71.5t-123 29t-130 -20.5t-107.5 -62t-86 -92.5t-66 -113t-47.5 -123.5t-29 -122.5l-34 -207q-8 -55 -8 -115.5t9.5 -120t30.5 -113.5t56 -96.5t85.5 -69t118.5 -30.5q100 -5 192 24t162 102l64 376h-335l19 104h446zM724 1732q3 35 28.5 59t60.5 25 q36 1 59.5 -23.5t20.5 -60.5q-2 -35 -28 -58.5t-61 -24.5q-18 0 -33 6t-26 17t-16.5 26.5t-4.5 33.5z" />
<glyph unicode="&#x121;" d="M145 545q9 67 28.5 134.5t49.5 130t70.5 117t93.5 94.5t117.5 62t141.5 20q94 -3 170 -46.5t122 -124.5l35 150h112l-182 -1063q-15 -96 -55.5 -179t-103.5 -144.5t-147 -95.5t-186 -31q-52 1 -101.5 14.5t-94 37.5t-82.5 58.5t-66 78.5l73 70q48 -70 115 -113.5 t154 -45.5q79 -2 142 24t110.5 73t78 110.5t44.5 136.5l25 123q-66 -74 -150 -116t-185 -40q-71 2 -125.5 26.5t-93.5 65.5t-64 94t-38.5 113t-15.5 122.5t5 121.5zM261 524q-6 -46 -6 -96t7.5 -98t24 -92t45 -77.5t70.5 -54t100 -22.5q52 -2 99 12t88 39.5t75.5 61.5 t61.5 78l88 517q-14 45 -37 82t-55 64.5t-72.5 43t-88.5 17.5q-63 2 -114.5 -16.5t-93 -51.5t-73.5 -77.5t-55 -95.5t-38 -105.5t-23 -107.5zM653 1389q3 35 28.5 59t60.5 25q36 1 59.5 -23.5t20.5 -60.5q-2 -35 -28 -58.5t-61 -24.5q-18 0 -33 6t-26 17t-16.5 26.5 t-4.5 33.5z" />
<glyph unicode="&#x122;" d="M1000 174q-93 -101 -216.5 -149.5t-260.5 -43.5q-84 3 -149.5 32.5t-113.5 78t-79.5 112.5t-48.5 135t-20 146t7 146l33 204q13 75 37.5 152.5t61 149.5t85.5 134.5t110.5 108.5t136 72t161.5 24q93 -2 166 -36t123.5 -92.5t78 -136t28.5 -166.5h-115q-5 64 -24 122.5 t-53.5 103t-86.5 71.5t-123 29t-130 -20.5t-107.5 -62t-86 -92.5t-66 -113t-47.5 -123.5t-29 -122.5l-34 -207q-8 -55 -8 -115.5t9.5 -120t30.5 -113.5t56 -96.5t85.5 -69t118.5 -30.5q100 -5 192 24t162 102l64 376h-335l19 104h446zM546 -155q-12 -86 -52 -159.5 t-103 -131.5l-71 55q41 54 69 110.5t41 122.5l15 76l110 -1z" />
<glyph unicode="&#x123;" d="M145 545q9 67 28.5 134.5t49.5 130t70.5 117t93.5 94.5t117.5 62t141.5 20q94 -3 170 -46.5t122 -124.5l35 150h112l-182 -1063q-15 -96 -55.5 -179t-103.5 -144.5t-147 -95.5t-186 -31q-52 1 -101.5 14.5t-94 37.5t-82.5 58.5t-66 78.5l73 70q48 -70 115 -113.5 t154 -45.5q79 -2 142 24t110.5 73t78 110.5t44.5 136.5l25 123q-66 -74 -150 -116t-185 -40q-71 2 -125.5 26.5t-93.5 65.5t-64 94t-38.5 113t-15.5 122.5t5 121.5zM261 524q-6 -46 -6 -96t7.5 -98t24 -92t45 -77.5t70.5 -54t100 -22.5q52 -2 99 12t88 39.5t75.5 61.5 t61.5 78l88 517q-14 45 -37 82t-55 64.5t-72.5 43t-88.5 17.5q-63 2 -114.5 -16.5t-93 -51.5t-73.5 -77.5t-55 -95.5t-38 -105.5t-23 -107.5zM710 1391q12 72 48 132.5t84 113.5l77 -53q-31 -45 -54 -92.5t-33 -101.5l-23 -126h-118z" />
<glyph unicode="&#x124;" d="M934 0h-112l121 698h-660l-122 -698h-112l253 1456h112l-114 -654h661l114 654h112zM1040 1609l-2 -18h-107l-133 172l-192 -171l-109 -1l2 20l267 239h73z" />
<glyph unicode="&#x125;" d="M346 873q34 50 75.5 92.5t91 73t105.5 47.5t119 16q89 -2 149.5 -36.5t96 -91t47 -130t2.5 -153.5l-116 -691h-119l116 692q7 60 0 114.5t-31.5 96.5t-68.5 67t-111 27q-61 1 -115 -17t-101 -50.5t-85.5 -76.5t-68.5 -93l-131 -760h-119l267 1536h119zM855 1627l-2 -18 h-107l-133 172l-192 -171l-109 -1l2 20l267 239h73z" />
<glyph unicode="&#x126;" d="M1124 1123h137l-18 -97h-136l-178 -1026h-112l121 698h-660l-122 -698h-112l178 1026h-115l18 97h114l58 333h112l-58 -333h661l58 333h112zM956 802l39 224h-661l-39 -224h661z" />
<glyph unicode="&#x127;" horiz-adv-x="1232" d="M732 1257h-286l-70 -384q34 50 75.5 92.5t91 73t105.5 47.5t119 16q89 -2 149.5 -36.5t96 -91t47 -130t2.5 -153.5l-116 -691h-119l116 692q7 60 0 114.5t-31.5 96.5t-68.5 67t-111 27q-61 1 -115 -17t-101 -50.5t-85.5 -76.5t-68.5 -93l-131 -760h-119l218 1257h-194 l18 102h194l31 177h119l-33 -177h286z" />
<glyph unicode="&#x128;" d="M335 1456h820l-19 -108h-354l-215 -1242h354l-19 -106h-820l19 106h343l215 1242h-344zM1101 1827q-6 -39 -21 -77t-39.5 -67t-59 -47t-79.5 -18q-39 0 -70.5 18t-61 39.5t-60.5 39t-68 16.5q-27 0 -47.5 -10.5t-35.5 -27t-25 -37.5t-17 -44l-80 13q7 40 23.5 77t42 65.5 t61 45t79.5 16.5q39 -1 70.5 -19t61.5 -39.5t61 -38.5t69 -16q27 1 47 12t35 28t25 39t16 45z" />
<glyph unicode="&#x129;" d="M297 1082h490l-170 -976h358l-19 -106h-847l19 106h370l151 869h-371zM1108 1516q-6 -39 -21 -77t-39.5 -67t-59 -47t-79.5 -18q-39 0 -70.5 18t-61 39.5t-60.5 39t-68 16.5q-27 0 -47.5 -10.5t-35.5 -27t-25 -37.5t-17 -44l-80 13q7 40 23.5 77t42 65.5t61 45t79.5 16.5 q39 -1 70.5 -19t61.5 -39.5t61 -38.5t69 -16q27 1 47 12t35 28t25 39t16 45z" />
<glyph unicode="&#x12a;" d="M335 1456h820l-19 -108h-354l-215 -1242h354l-19 -106h-820l19 106h343l215 1242h-344zM1091 1689h-652l15 97h653z" />
<glyph unicode="&#x12b;" d="M297 1082h490l-170 -976h358l-19 -106h-847l19 106h370l151 869h-371zM1098 1378h-652l15 97h653z" />
<glyph unicode="&#x12c;" d="M335 1456h820l-19 -108h-354l-215 -1242h354l-19 -106h-820l19 106h343l215 1242h-344zM1070 1838q-9 -60 -34.5 -108t-65 -82t-91 -51.5t-112.5 -16.5q-58 1 -105.5 19.5t-81 52.5t-51 81t-16.5 105l100 -1q-2 -77 37 -123t119 -48q42 -1 75 11t58.5 34.5t43 54.5 t27.5 70z" />
<glyph unicode="&#x12d;" d="M297 1082h490l-170 -976h358l-19 -106h-847l19 106h370l151 869h-371zM1077 1527q-9 -60 -34.5 -108t-65 -82t-91 -51.5t-112.5 -16.5q-58 1 -105.5 19.5t-81 52.5t-51 81t-16.5 105l100 -1q-2 -77 37 -123t119 -48q42 -1 75 11t58.5 34.5t43 54.5t27.5 70z" />
<glyph unicode="&#x12e;" d="M335 1456h820l-19 -108h-354l-215 -1242h354l-19 -106h-143l4 -2q-32 -19 -68 -43t-67 -53.5t-52.5 -64.5t-24.5 -77q-2 -35 15.5 -55.5t52.5 -22.5q29 -1 56 9t52 23l16 -85q-34 -20 -71 -31t-77 -11q-36 0 -65 12t-49 33.5t-30.5 51t-8.5 64.5q2 41 18.5 77.5t42.5 68 t58.5 58t66.5 48.5h-546l19 106h343l215 1242h-344z" />
<glyph unicode="&#x12f;" d="M297 1082h490l-170 -976h358l-19 -106h-361l4 -2q-32 -19 -68 -43t-67 -53.5t-52.5 -64.5t-24.5 -77q-2 -35 15.5 -55.5t52.5 -22.5q29 -1 56 9t52 23l16 -85q-34 -20 -71 -31t-77 -11q-36 0 -65 12t-49 33.5t-30.5 51t-8.5 64.5q2 41 18.5 77.5t42.5 68t58.5 58 t66.5 48.5h-355l19 106h370l151 869h-371zM685 1376q2 40 27 66.5t66 27.5q40 1 64 -25t22 -65t-28 -64.5t-65 -26.5q-40 -1 -64 23.5t-22 63.5z" />
<glyph unicode="&#x130;" d="M335 1456h820l-19 -108h-354l-215 -1242h354l-19 -106h-820l19 106h343l215 1242h-344zM688 1711q3 35 28.5 59t60.5 25q36 1 59.5 -23.5t20.5 -60.5q-2 -35 -28 -58.5t-61 -24.5q-18 0 -33 6t-26 17t-16.5 26.5t-4.5 33.5z" />
<glyph unicode="&#x131;" d="M297 1082h490l-170 -976h358l-19 -106h-847l19 106h370l151 869h-371z" />
<glyph unicode="&#x132;" d="M148 0h-120l253 1456h120zM1093 1456h120l-192 -1124q-11 -81 -41 -146.5t-79 -111.5t-116 -70.5t-152 -22.5q-76 1 -132 27.5t-91 71.5t-50 106.5t-9 134.5h119q-5 -49 1.5 -92t26.5 -75.5t55.5 -51.5t90.5 -20q60 -2 105 16.5t76 51.5t49.5 79.5t26.5 102.5z" />
<glyph unicode="&#x133;" d="M743 1082h357l-185 -1082q-14 -95 -50.5 -175.5t-95.5 -139t-139.5 -91t-180.5 -31.5q-52 0 -103.5 5.5t-103.5 13.5l21 100q45 -7 91 -10t92 -4q78 -1 138.5 23t104.5 68.5t71 106t38 134.5l165 975h-239zM186 1082h369l-169 -976h209l-19 -106h-580l19 106h251l151 869 h-250zM994 1375q2 40 26.5 66.5t65.5 27.5t65 -24.5t22 -65.5t-28 -65t-65 -26q-40 -1 -64 23.5t-22 63.5zM457 1374q2 40 26.5 66.5t64.5 27.5q42 1 65 -24.5t21 -65.5t-27 -65t-65 -26t-63.5 23.5t-21.5 63.5z" />
<glyph unicode="&#x134;" d="M1022 1456h122l-174 -1014q-15 -96 -59.5 -181t-112 -148t-155 -99t-188.5 -34q-94 1 -166 35t-120 92t-72 136t-22 168l120 -1q-4 -66 11 -124.5t48.5 -103t85.5 -71t123 -27.5q77 -2 142 27t115 79t83 115.5t45 136.5zM1375 1587l-2 -18h-107l-133 172l-192 -171 l-109 -1l2 20l267 239h73z" />
<glyph unicode="&#x135;" d="M340 1082h519l-185 -1082q-14 -95 -51 -175.5t-95.5 -139.5t-139 -92t-180.5 -32q-53 0 -104.5 5.5t-103.5 13.5l21 98q45 -7 91.5 -10t92.5 -4q78 -1 138.5 24t104 70t70 107t37.5 135l166 975h-400zM1109 1316l-2 -18h-107l-133 172l-192 -171l-109 -1l2 20l267 239h73 z" />
<glyph unicode="&#x136;" d="M518 719l-220 -202l-89 -517h-121l254 1456h120l-136 -771l227 222l552 549h157l-655 -653l432 -803h-135zM528 -87q-12 -86 -52 -159.5t-103 -131.5l-71 55q41 54 69 110.5t41 122.5l15 76l110 -1z" />
<glyph unicode="&#x137;" d="M471 545l-176 -140l-71 -405h-120l267 1536h120l-171 -980l141 120l494 406h162l-555 -461l405 -621h-141zM463 -84q-12 -86 -52 -159.5t-103 -131.5l-71 55q41 54 69 110.5t41 122.5l15 76l110 -1z" />
<glyph unicode="&#x138;" d="M480 504l-200 -160l-60 -344h-119l188 1082h120l-104 -589l159 141l514 448h155l-565 -500l416 -582h-142z" />
<glyph unicode="&#x139;" d="M245 104h720l-19 -104h-838l253 1456h119zM589 1781h151l-266 -265h-106z" />
<glyph unicode="&#x13a;" d="M376 1536h491l-248 -1430h356l-19 -106h-847l19 106h372l229 1323h-372zM958 1899h151l-266 -265h-106z" />
<glyph unicode="&#x13b;" d="M245 104h720l-19 -104h-838l253 1456h119zM517 -141q-12 -86 -52 -159.5t-103 -131.5l-71 55q41 54 69 110.5t41 122.5l15 76l110 -1z" />
<glyph unicode="&#x13c;" d="M376 1536h491l-248 -1430h356l-19 -106h-847l19 106h372l229 1323h-372zM583 -140q-12 -86 -52 -159.5t-103 -131.5l-71 55q41 54 69 110.5t41 122.5l15 76l110 -1z" />
<glyph unicode="&#x13d;" d="M245 104h720l-19 -104h-838l253 1456h119zM977 1332q-16 -99 -64 -183t-122 -150l-69 56q51 61 86 128.5t49 145.5l22 126h117z" />
<glyph unicode="&#x13e;" horiz-adv-x="1352" d="M376 1536h491l-248 -1430h356l-19 -106h-847l19 106h372l229 1323h-372zM1266 1416q-16 -99 -64 -183t-122 -150l-69 56q51 61 86 128.5t49 145.5l22 126h117z" />
<glyph unicode="&#x13f;" d="M245 104h720l-19 -104h-838l253 1456h119zM585 772q3 35 28.5 59t60.5 25q36 1 59.5 -23.5t20.5 -60.5q-2 -35 -28 -58.5t-61 -24.5q-18 0 -33 6t-26 17t-16.5 26.5t-4.5 33.5z" />
<glyph unicode="&#x140;" horiz-adv-x="1422" d="M376 1536h491l-248 -1430h356l-19 -106h-847l19 106h372l229 1323h-372zM876 824q3 35 28.5 59t60.5 25q36 1 59.5 -23.5t20.5 -60.5q-2 -35 -28 -58.5t-61 -24.5q-18 0 -33 6t-26 17t-16.5 26.5t-4.5 33.5z" />
<glyph unicode="&#x141;" d="M391 825l303 92l-21 -113l-301 -92l-106 -608h720l-19 -104h-838l117 674l-190 -57l21 113l188 57l117 669h119z" />
<glyph unicode="&#x142;" d="M376 1536h491l-110 -633l355 115l-25 -114l-350 -114l-118 -684h356l-19 -106h-847l19 106h372l111 643l-380 -123l23 115l377 121l98 567h-372z" />
<glyph unicode="&#x143;" d="M934 0h-115l-435 1231l-215 -1231h-118l253 1456h114l435 -1229l215 1229h118zM917 1829h151l-266 -265h-106z" />
<glyph unicode="&#x144;" d="M380 1082l-34 -203q34 49 75.5 90.5t90.5 71.5t104.5 46t117.5 15q88 -2 149 -36.5t96 -90.5t47 -129t3 -153l-116 -693h-119l116 692q7 60 0.5 114.5t-30.5 96.5t-68.5 67.5t-112.5 27.5q-62 1 -116.5 -18.5t-101 -53t-84.5 -78.5t-66 -96l-130 -752h-119l188 1082h110z M856 1507h151l-266 -265h-106z" />
<glyph unicode="&#x145;" d="M934 0h-115l-435 1231l-215 -1231h-118l253 1456h114l435 -1229l215 1229h118zM529 -141q-12 -86 -52 -159.5t-103 -131.5l-71 55q41 54 69 110.5t41 122.5l15 76l110 -1z" />
<glyph unicode="&#x146;" d="M380 1082l-34 -203q34 49 75.5 90.5t90.5 71.5t104.5 46t117.5 15q88 -2 149 -36.5t96 -90.5t47 -129t3 -153l-116 -693h-119l116 692q7 60 0.5 114.5t-30.5 96.5t-68.5 67.5t-112.5 27.5q-62 1 -116.5 -18.5t-101 -53t-84.5 -78.5t-66 -96l-130 -752h-119l188 1082h110z M526 -141q-12 -86 -52 -159.5t-103 -131.5l-71 55q41 54 69 110.5t41 122.5l15 76l110 -1z" />
<glyph unicode="&#x147;" d="M934 0h-115l-435 1231l-215 -1231h-118l253 1456h114l435 -1229l215 1229h118zM771 1669l201 182l107 1l-1 -16l-267 -248h-85l-193 247l2 18l104 -1z" />
<glyph unicode="&#x148;" d="M380 1082l-34 -203q34 49 75.5 90.5t90.5 71.5t104.5 46t117.5 15q88 -2 149 -36.5t96 -90.5t47 -129t3 -153l-116 -693h-119l116 692q7 60 0.5 114.5t-30.5 96.5t-68.5 67.5t-112.5 27.5q-62 1 -116.5 -18.5t-101 -53t-84.5 -78.5t-66 -96l-130 -752h-119l188 1082h110z M711 1347l201 182l107 1l-1 -16l-267 -248h-85l-193 247l2 18l104 -1z" />
<glyph unicode="&#x149;" d="M380 1082l-34 -203q34 49 75.5 90.5t90.5 71.5t104.5 46t117.5 15q88 -2 149 -36.5t96 -90.5t47 -129t3 -153l-116 -693h-119l116 692q7 60 0.5 114.5t-30.5 96.5t-68.5 67.5t-112.5 27.5q-62 1 -116.5 -18.5t-101 -53t-84.5 -78.5t-66 -96l-130 -752h-119l188 1082h110z M355 1423q-16 -99 -64 -183t-122 -150l-69 56q51 61 86 128.5t49 145.5l22 126h117z" />
<glyph unicode="&#x14a;" d="M1162 1456l-264 -1544q-10 -66 -33 -129.5t-62 -113t-94.5 -79.5t-130.5 -29q-28 1 -54 7t-52 14l25 98q22 -8 44.5 -13.5t45.5 -5.5q48 0 82 24.5t56.5 61.5t35.5 81t19 83l15 100l-393 1206l-212 -1217h-117l254 1456h111l-1 -5l396 -1210l212 1215h117z" />
<glyph unicode="&#x14b;" d="M387 1082l-31 -191q31 48 70 88t84.5 67.5t98 42t112.5 13.5q62 -2 109 -20.5t80.5 -50t55 -73.5t32.5 -91t12 -102t-5 -106l-123 -748q-10 -71 -36.5 -135t-69.5 -112.5t-103.5 -76.5t-138.5 -27q-33 1 -64.5 7.5t-62.5 14.5l25 102q26 -8 53.5 -13t55.5 -5 q52 0 90.5 21t65.5 55.5t43 79t23 89.5l124 748q7 59 3.5 118.5t-24.5 108t-63.5 79.5t-114.5 33q-54 1 -108 -15t-101.5 -46.5t-83.5 -74t-53 -96.5l-131 -766h-119l189 1082h106z" />
<glyph unicode="&#x14c;" d="M1078 632q-13 -74 -36 -152t-58 -151t-81.5 -137.5t-106.5 -112.5t-133.5 -75t-160.5 -24q-83 2 -146 32.5t-108 80t-73.5 114.5t-42.5 136.5t-15 145.5t9 142l31 192q12 74 35.5 151.5t58.5 151t82 138t107 112.5t133.5 75t160.5 25q84 -2 147 -32.5t108 -80.5t73 -115 t41.5 -137t14 -146t-8.5 -142zM992 827q7 51 9 110.5t-5 119t-24.5 115t-49.5 98.5t-80 70t-116 29q-71 2 -128.5 -21.5t-104.5 -64.5t-83 -96t-62.5 -116.5t-44.5 -124.5t-28 -121l-32 -195q-7 -51 -9 -110.5t5 -119t25 -115.5t50 -99t80 -70t116 -29q71 -3 129 20.5 t105 64.5t82.5 96t62 116t44 125t27.5 122zM1121 1710h-652l15 97h653z" />
<glyph unicode="&#x14d;" d="M119 550q9 71 32 140t58 131t82.5 114.5t105.5 90t126 58t146 18.5q74 -2 133.5 -24.5t105 -60.5t77 -90t49.5 -111.5t23.5 -124.5t-1.5 -131l-4 -34q-14 -107 -58.5 -206.5t-115 -176t-166 -121.5t-210.5 -42q-110 3 -188.5 50t-126 122.5t-65.5 171t-7 193.5zM234 516 q-8 -73 1 -149t41 -139t88.5 -104t143.5 -44q92 -3 166 36t128 103t87 145t45 163l4 32q8 73 -1 150t-41 141t-89 106t-144 45q-93 3 -166.5 -37t-127.5 -104.5t-87 -146.5t-44 -163zM1050 1367h-652l15 97h653z" />
<glyph unicode="&#x14e;" d="M1078 632q-13 -74 -36 -152t-58 -151t-81.5 -137.5t-106.5 -112.5t-133.5 -75t-160.5 -24q-83 2 -146 32.5t-108 80t-73.5 114.5t-42.5 136.5t-15 145.5t9 142l31 192q12 74 35.5 151.5t58.5 151t82 138t107 112.5t133.5 75t160.5 25q84 -2 147 -32.5t108 -80.5t73 -115 t41.5 -137t14 -146t-8.5 -142zM992 827q7 51 9 110.5t-5 119t-24.5 115t-49.5 98.5t-80 70t-116 29q-71 2 -128.5 -21.5t-104.5 -64.5t-83 -96t-62.5 -116.5t-44.5 -124.5t-28 -121l-32 -195q-7 -51 -9 -110.5t5 -119t25 -115.5t50 -99t80 -70t116 -29q71 -3 129 20.5 t105 64.5t82.5 96t62 116t44 125t27.5 122zM1100 1859q-9 -60 -34.5 -108t-65 -82t-91 -51.5t-112.5 -16.5q-58 1 -105.5 19.5t-81 52.5t-51 81t-16.5 105l100 -1q-2 -77 37 -123t119 -48q42 -1 75 11t58.5 34.5t43 54.5t27.5 70z" />
<glyph unicode="&#x14f;" d="M119 550q9 71 32 140t58 131t82.5 114.5t105.5 90t126 58t146 18.5q74 -2 133.5 -24.5t105 -60.5t77 -90t49.5 -111.5t23.5 -124.5t-1.5 -131l-4 -34q-14 -107 -58.5 -206.5t-115 -176t-166 -121.5t-210.5 -42q-110 3 -188.5 50t-126 122.5t-65.5 171t-7 193.5zM234 516 q-8 -73 1 -149t41 -139t88.5 -104t143.5 -44q92 -3 166 36t128 103t87 145t45 163l4 32q8 73 -1 150t-41 141t-89 106t-144 45q-93 3 -166.5 -37t-127.5 -104.5t-87 -146.5t-44 -163zM1029 1516q-9 -60 -34.5 -108t-65 -82t-91 -51.5t-112.5 -16.5q-58 1 -105.5 19.5 t-81 52.5t-51 81t-16.5 105l100 -1q-2 -77 37 -123t119 -48q42 -1 75 11t58.5 34.5t43 54.5t27.5 70z" />
<glyph unicode="&#x150;" d="M1078 632q-13 -74 -36 -152t-58 -151t-81.5 -137.5t-106.5 -112.5t-133.5 -75t-160.5 -24q-83 2 -146 32.5t-108 80t-73.5 114.5t-42.5 136.5t-15 145.5t9 142l31 192q12 74 35.5 151.5t58.5 151t82 138t107 112.5t133.5 75t160.5 25q84 -2 147 -32.5t108 -80.5t73 -115 t41.5 -137t14 -146t-8.5 -142zM992 827q7 51 9 110.5t-5 119t-24.5 115t-49.5 98.5t-80 70t-116 29q-71 2 -128.5 -21.5t-104.5 -64.5t-83 -96t-62.5 -116.5t-44.5 -124.5t-28 -121l-32 -195q-7 -51 -9 -110.5t5 -119t25 -115.5t50 -99t80 -70t116 -29q71 -3 129 20.5 t105 64.5t82.5 96t62 116t44 125t27.5 122zM1111 1881h162l-342 -286h-130zM816 1881h149l-290 -287l-118 1z" />
<glyph unicode="&#x151;" d="M119 550q9 71 32 140t58 131t82.5 114.5t105.5 90t126 58t146 18.5q74 -2 133.5 -24.5t105 -60.5t77 -90t49.5 -111.5t23.5 -124.5t-1.5 -131l-4 -34q-14 -107 -58.5 -206.5t-115 -176t-166 -121.5t-210.5 -42q-110 3 -188.5 50t-126 122.5t-65.5 171t-7 193.5zM234 516 q-8 -73 1 -149t41 -139t88.5 -104t143.5 -44q92 -3 166 36t128 103t87 145t45 163l4 32q8 73 -1 150t-41 141t-89 106t-144 45q-93 3 -166.5 -37t-127.5 -104.5t-87 -146.5t-44 -163zM1040 1538h162l-342 -286h-130zM745 1538h149l-290 -287l-118 1z" />
<glyph unicode="&#x152;" d="M1053 0h-438q-60 -3 -118.5 -9t-118.5 -4q-72 3 -125.5 28.5t-91 67.5t-60.5 96.5t-34 115t-11 123.5t8 122l62 375q11 66 30 133t47.5 128.5t67.5 115t90 93.5t113.5 63t139.5 24q60 1 119 -5.5t119 -10.5h449l-19 -102h-426l-96 -553h370l-18 -102h-369l-104 -598h432z M384 89q33 -2 66.5 -1.5t67.5 2.5l225 1275q-34 3 -67 5t-67 2q-61 0 -110 -20t-86.5 -53.5t-65.5 -78t-48 -95t-33.5 -104t-21.5 -104.5l-61 -378q-6 -43 -9 -91.5t0 -97.5t15 -94.5t36.5 -81.5t63 -59t95.5 -26z" />
<glyph unicode="&#x153;" d="M28 629q8 53 23 109t38 109t54.5 100.5t72.5 82.5t92.5 54.5t115.5 18.5q91 -3 155 -54t90 -137q24 38 52 73t62.5 61.5t75 42t89.5 14.5q82 -2 133 -41.5t77.5 -100t32.5 -133t-2 -138.5l-27 -163h-487l-14 -92q-4 -29 -6 -65.5t0.5 -75.5t11 -76t25.5 -66.5t44.5 -48.5 t68.5 -20q63 -2 117 24t102 63l34 -84q-54 -51 -119.5 -79t-140.5 -26q-89 2 -151.5 52t-88.5 133q-26 -40 -56 -74.5t-66.5 -60t-79.5 -39.5t-94 -13q-61 2 -105.5 24t-75.5 58.5t-49.5 84t-27 99.5t-8.5 105t6 101zM121 449q-4 -30 -6.5 -69t0 -79.5t11 -79.5t26.5 -70 t47.5 -50.5t73.5 -20.5q46 -2 82 15.5t64 46.5t48 68t34 80.5t23 83t14 77.5l27 180q4 30 6.5 69t0 79.5t-11 80t-27 70.5t-48 50.5t-72.5 20.5q-46 1 -82 -16t-64 -46t-48 -68t-34 -80.5t-23 -83.5t-14 -77zM687 626l377 2l11 84q5 39 4 88.5t-15 93.5t-44 74.5t-83 32.5 q-44 1 -77 -16.5t-58.5 -47t-43.5 -68.5t-31 -79.5t-21.5 -80t-15.5 -71.5z" />
<glyph unicode="&#x154;" d="M666 609h-350l-106 -609h-118l253 1456l392 -1q90 -3 165 -35t127 -86.5t78 -130.5t17 -168q-7 -77 -36.5 -139t-75.5 -111.5t-106 -86.5t-128 -64l216 -621l-2 -13h-124zM333 710l301 -2q70 1 134 25.5t114 68t82.5 103.5t40.5 131q7 67 -9 124t-52 99t-89.5 66.5 t-120.5 27.5l-289 1zM894 1823h151l-266 -265h-106z" />
<glyph unicode="&#x155;" d="M961 1103q85 0 164 -22l-29 -114q-40 8 -80 13.5t-81 6.5q-71 1 -142.5 -18t-133 -56.5t-108.5 -93t-68 -128.5l-117 -691h-123l188 1082h115l-31 -186l-6 -24q82 111 197 172t255 59zM834 1507h151l-266 -265h-106z" />
<glyph unicode="&#x156;" d="M666 609h-350l-106 -609h-118l253 1456l392 -1q90 -3 165 -35t127 -86.5t78 -130.5t17 -168q-7 -77 -36.5 -139t-75.5 -111.5t-106 -86.5t-128 -64l216 -621l-2 -13h-124zM333 710l301 -2q70 1 134 25.5t114 68t82.5 103.5t40.5 131q7 67 -9 124t-52 99t-89.5 66.5 t-120.5 27.5l-289 1zM492 -141q-12 -86 -52 -159.5t-103 -131.5l-71 55q41 54 69 110.5t41 122.5l15 76l110 -1z" />
<glyph unicode="&#x157;" d="M961 1103q85 0 164 -22l-29 -114q-40 8 -80 13.5t-81 6.5q-71 1 -142.5 -18t-133 -56.5t-108.5 -93t-68 -128.5l-117 -691h-123l188 1082h115l-31 -186l-6 -24q82 111 197 172t255 59zM346 -137q-12 -86 -52 -159.5t-103 -131.5l-71 55q41 54 69 110.5t41 122.5l15 76 l110 -1z" />
<glyph unicode="&#x158;" d="M666 609h-350l-106 -609h-118l253 1456l392 -1q90 -3 165 -35t127 -86.5t78 -130.5t17 -168q-7 -77 -36.5 -139t-75.5 -111.5t-106 -86.5t-128 -64l216 -621l-2 -13h-124zM333 710l301 -2q70 1 134 25.5t114 68t82.5 103.5t40.5 131q7 67 -9 124t-52 99t-89.5 66.5 t-120.5 27.5l-289 1zM748 1663l201 182l107 1l-1 -16l-267 -248h-85l-193 247l2 18l104 -1z" />
<glyph unicode="&#x159;" d="M961 1103q85 0 164 -22l-29 -114q-40 8 -80 13.5t-81 6.5q-71 1 -142.5 -18t-133 -56.5t-108.5 -93t-68 -128.5l-117 -691h-123l188 1082h115l-31 -186l-6 -24q82 111 197 172t255 59zM689 1347l201 182l107 1l-1 -16l-267 -248h-85l-193 247l2 18l104 -1z" />
<glyph unicode="&#x15a;" d="M921 366q5 47 -5 85t-30.5 68.5t-50 55t-64 44t-72 35.5t-74.5 30q-70 26 -139 60.5t-123 83t-85.5 113.5t-25.5 151q4 61 26.5 114t58.5 96t82.5 76t99.5 55.5t110.5 33t114.5 9.5q90 -2 165.5 -35t128.5 -89.5t80.5 -133t23.5 -166.5h-119q-1 66 -19.5 123t-54 100 t-88.5 68.5t-122 27.5q-63 2 -125.5 -16t-113.5 -53.5t-85.5 -88t-40.5 -119.5t19 -115.5t68 -83.5t97.5 -59t107.5 -43q73 -26 144 -62.5t125 -87.5t85 -119t24 -156q-5 -64 -27.5 -118t-59 -97.5t-84.5 -76t-102.5 -54.5t-113.5 -32.5t-118 -9.5q-93 1 -174.5 31.5 t-141 86t-92 133.5t-28.5 174h118q1 -73 24.5 -131.5t65.5 -100t101 -65t132 -24.5q66 -2 130.5 15.5t117 53t87.5 89t42 124.5zM921 1850h151l-266 -265h-106z" />
<glyph unicode="&#x15b;" d="M868 282q6 55 -18.5 92t-65 62t-89 40t-89.5 25q-39 10 -81 22t-82.5 29t-76 39t-62 52t-41 68.5t-11.5 88.5q3 53 23.5 96t53 77t74.5 58.5t89 40.5t95.5 23.5t94.5 6.5q74 -1 142.5 -21.5t120.5 -60.5t82.5 -100.5t29.5 -141.5l-118 1q2 55 -20 96t-58.5 68.5 t-84.5 41.5t-98 15q-47 1 -98.5 -9.5t-96 -33.5t-75.5 -61t-37 -92t18.5 -89t64.5 -57.5t87.5 -35t88.5 -22.5q40 -10 83 -22.5t83.5 -30.5t76.5 -41.5t62 -55t40 -71.5t11 -90q-3 -56 -24.5 -101t-55 -79.5t-78 -59.5t-93 -40.5t-100 -22.5t-99.5 -6q-74 1 -146 20.5 t-128.5 59.5t-91 100.5t-33.5 143.5h118q2 -60 26.5 -102t64 -68.5t90 -39t104.5 -13.5q48 0 103 9.5t102.5 33t81.5 62.5t41 96zM876 1507h151l-266 -265h-106z" />
<glyph unicode="&#x15c;" d="M921 366q5 47 -5 85t-30.5 68.5t-50 55t-64 44t-72 35.5t-74.5 30q-70 26 -139 60.5t-123 83t-85.5 113.5t-25.5 151q4 61 26.5 114t58.5 96t82.5 76t99.5 55.5t110.5 33t114.5 9.5q90 -2 165.5 -35t128.5 -89.5t80.5 -133t23.5 -166.5h-119q-1 66 -19.5 123t-54 100 t-88.5 68.5t-122 27.5q-63 2 -125.5 -16t-113.5 -53.5t-85.5 -88t-40.5 -119.5t19 -115.5t68 -83.5t97.5 -59t107.5 -43q73 -26 144 -62.5t125 -87.5t85 -119t24 -156q-5 -64 -27.5 -118t-59 -97.5t-84.5 -76t-102.5 -54.5t-113.5 -32.5t-118 -9.5q-93 1 -174.5 31.5 t-141 86t-92 133.5t-28.5 174h118q1 -73 24.5 -131.5t65.5 -100t101 -65t132 -24.5q66 -2 130.5 15.5t117 53t87.5 89t42 124.5zM1046 1630l-2 -18h-107l-133 172l-192 -171l-109 -1l2 20l267 239h73z" />
<glyph unicode="&#x15d;" d="M868 282q6 55 -18.5 92t-65 62t-89 40t-89.5 25q-39 10 -81 22t-82.5 29t-76 39t-62 52t-41 68.5t-11.5 88.5q3 53 23.5 96t53 77t74.5 58.5t89 40.5t95.5 23.5t94.5 6.5q74 -1 142.5 -21.5t120.5 -60.5t82.5 -100.5t29.5 -141.5l-118 1q2 55 -20 96t-58.5 68.5 t-84.5 41.5t-98 15q-47 1 -98.5 -9.5t-96 -33.5t-75.5 -61t-37 -92t18.5 -89t64.5 -57.5t87.5 -35t88.5 -22.5q40 -10 83 -22.5t83.5 -30.5t76.5 -41.5t62 -55t40 -71.5t11 -90q-3 -56 -24.5 -101t-55 -79.5t-78 -59.5t-93 -40.5t-100 -22.5t-99.5 -6q-74 1 -146 20.5 t-128.5 59.5t-91 100.5t-33.5 143.5h118q2 -60 26.5 -102t64 -68.5t90 -39t104.5 -13.5q48 0 103 9.5t102.5 33t81.5 62.5t41 96zM1001 1287l-2 -18h-107l-133 172l-192 -171l-109 -1l2 20l267 239h73z" />
<glyph unicode="&#x15e;" d="M921 366q5 47 -5 85t-30.5 68.5t-50 55t-64 44t-72 35.5t-74.5 30q-70 26 -139 60.5t-123 83t-85.5 113.5t-25.5 151q4 61 26.5 114t58.5 96t82.5 76t99.5 55.5t110.5 33t114.5 9.5q90 -2 165.5 -35t128.5 -89.5t80.5 -133t23.5 -166.5h-119q-1 66 -19.5 123t-54 100 t-88.5 68.5t-122 27.5q-63 2 -125.5 -16t-113.5 -53.5t-85.5 -88t-40.5 -119.5t19 -115.5t68 -83.5t97.5 -59t107.5 -43q73 -26 144 -62.5t125 -87.5t85 -119t24 -156q-5 -64 -27.5 -118t-59 -97.5t-84.5 -76t-102.5 -54.5t-113.5 -32.5t-118 -9.5q-93 1 -174.5 31.5 t-141 86t-92 133.5t-28.5 174h118q1 -73 24.5 -131.5t65.5 -100t101 -65t132 -24.5q66 -2 130.5 15.5t117 53t87.5 89t42 124.5zM571 -9l-22 -66q63 -14 100.5 -53.5t34.5 -108.5q-3 -62 -34.5 -101.5t-78.5 -62.5t-102 -33t-105 -12l2 79q31 1 67.5 6.5t68.5 20t55 38.5 t28 63q4 32 -9.5 51t-36 29.5t-50 15t-51.5 7.5l43 127h90z" />
<glyph unicode="&#x15f;" d="M868 282q6 55 -18.5 92t-65 62t-89 40t-89.5 25q-39 10 -81 22t-82.5 29t-76 39t-62 52t-41 68.5t-11.5 88.5q3 53 23.5 96t53 77t74.5 58.5t89 40.5t95.5 23.5t94.5 6.5q74 -1 142.5 -21.5t120.5 -60.5t82.5 -100.5t29.5 -141.5l-118 1q2 55 -20 96t-58.5 68.5 t-84.5 41.5t-98 15q-47 1 -98.5 -9.5t-96 -33.5t-75.5 -61t-37 -92t18.5 -89t64.5 -57.5t87.5 -35t88.5 -22.5q40 -10 83 -22.5t83.5 -30.5t76.5 -41.5t62 -55t40 -71.5t11 -90q-3 -56 -24.5 -101t-55 -79.5t-78 -59.5t-93 -40.5t-100 -22.5t-99.5 -6q-74 1 -146 20.5 t-128.5 59.5t-91 100.5t-33.5 143.5h118q2 -60 26.5 -102t64 -68.5t90 -39t104.5 -13.5q48 0 103 9.5t102.5 33t81.5 62.5t41 96zM559 -6l-22 -66q63 -14 100.5 -53.5t34.5 -108.5q-3 -62 -34.5 -101.5t-78.5 -62.5t-102 -33t-105 -12l2 79q31 1 67.5 6.5t68.5 20t55 38.5 t28 63q4 32 -9.5 51t-36 29.5t-50 15t-51.5 7.5l43 127h90z" />
<glyph unicode="&#x160;" d="M921 366q5 47 -5 85t-30.5 68.5t-50 55t-64 44t-72 35.5t-74.5 30q-70 26 -139 60.5t-123 83t-85.5 113.5t-25.5 151q4 61 26.5 114t58.5 96t82.5 76t99.5 55.5t110.5 33t114.5 9.5q90 -2 165.5 -35t128.5 -89.5t80.5 -133t23.5 -166.5h-119q-1 66 -19.5 123t-54 100 t-88.5 68.5t-122 27.5q-63 2 -125.5 -16t-113.5 -53.5t-85.5 -88t-40.5 -119.5t19 -115.5t68 -83.5t97.5 -59t107.5 -43q73 -26 144 -62.5t125 -87.5t85 -119t24 -156q-5 -64 -27.5 -118t-59 -97.5t-84.5 -76t-102.5 -54.5t-113.5 -32.5t-118 -9.5q-93 1 -174.5 31.5 t-141 86t-92 133.5t-28.5 174h118q1 -73 24.5 -131.5t65.5 -100t101 -65t132 -24.5q66 -2 130.5 15.5t117 53t87.5 89t42 124.5zM775 1690l201 182l107 1l-1 -16l-267 -248h-85l-193 247l2 18l104 -1z" />
<glyph unicode="&#x161;" d="M868 282q6 55 -18.5 92t-65 62t-89 40t-89.5 25q-39 10 -81 22t-82.5 29t-76 39t-62 52t-41 68.5t-11.5 88.5q3 53 23.5 96t53 77t74.5 58.5t89 40.5t95.5 23.5t94.5 6.5q74 -1 142.5 -21.5t120.5 -60.5t82.5 -100.5t29.5 -141.5l-118 1q2 55 -20 96t-58.5 68.5 t-84.5 41.5t-98 15q-47 1 -98.5 -9.5t-96 -33.5t-75.5 -61t-37 -92t18.5 -89t64.5 -57.5t87.5 -35t88.5 -22.5q40 -10 83 -22.5t83.5 -30.5t76.5 -41.5t62 -55t40 -71.5t11 -90q-3 -56 -24.5 -101t-55 -79.5t-78 -59.5t-93 -40.5t-100 -22.5t-99.5 -6q-74 1 -146 20.5 t-128.5 59.5t-91 100.5t-33.5 143.5h118q2 -60 26.5 -102t64 -68.5t90 -39t104.5 -13.5q48 0 103 9.5t102.5 33t81.5 62.5t41 96zM730 1347l201 182l107 1l-1 -16l-267 -248h-85l-193 247l2 18l104 -1z" />
<glyph unicode="&#x162;" d="M1236 1351h-449l-235 -1351h-116l235 1351h-451l19 105h1016zM541 0l-22 -66q63 -14 100.5 -53.5t34.5 -108.5q-3 -62 -34.5 -101.5t-78.5 -62.5t-102 -33t-105 -12l2 79q31 1 67.5 6.5t68.5 20t55 38.5t28 63q4 32 -9.5 51t-36 29.5t-50 15t-51.5 7.5l43 127h90z" />
<glyph unicode="&#x163;" d="M708 1359l-49 -277h390l-18 -98h-388l-114 -682q-11 -101 35.5 -157t148.5 -59q48 -2 95 4.5t94 14.5l9 -92q-54 -19 -110.5 -26.5t-113.5 -5.5q-74 1 -129 25t-90.5 66t-50.5 101t-9 131l113 680h-292l18 98h291l49 277h121zM676 0l-22 -66q63 -14 100.5 -53.5 t34.5 -108.5q-3 -62 -34.5 -101.5t-78.5 -62.5t-102 -33t-105 -12l2 79q31 1 67.5 6.5t68.5 20t55 38.5t28 63q4 32 -9.5 51t-36 29.5t-50 15t-51.5 7.5l43 127h90z" />
<glyph unicode="&#x164;" d="M1236 1351h-449l-235 -1351h-116l235 1351h-451l19 105h1016zM779 1659l201 182l107 1l-1 -16l-267 -248h-85l-193 247l2 18l104 -1z" />
<glyph unicode="&#x165;" horiz-adv-x="1242" d="M708 1359l-49 -277h390l-18 -98h-388l-114 -682q-11 -101 35.5 -157t148.5 -59q48 -2 95 4.5t94 14.5l9 -92q-54 -19 -110.5 -26.5t-113.5 -5.5q-74 1 -129 25t-90.5 66t-50.5 101t-9 131l113 680h-292l18 98h291l49 277h121zM1198 1512q-16 -99 -64 -183t-122 -150 l-69 56q51 61 86 128.5t49 145.5l22 126h117z" />
<glyph unicode="&#x166;" d="M926 834h-229l-145 -834h-116l145 834h-251l18 102h251l72 415h-451l19 105h1016l-19 -105h-449l-72 -415h230z" />
<glyph unicode="&#x167;" d="M832 617h-251l-52 -315q-11 -101 35.5 -157t148.5 -59q48 -2 95 4.5t94 14.5l9 -92q-54 -19 -110.5 -26.5t-113.5 -5.5q-74 1 -129 25t-90.5 66t-50.5 101t-9 131l52 313h-224l18 102h223l44 265h-292l18 98h291l49 277h121l-49 -277h390l-18 -98h-388l-45 -265h253z" />
<glyph unicode="&#x168;" d="M1189 1456l-167 -985q-15 -98 -59 -187.5t-111.5 -158t-156 -108t-193.5 -37.5q-99 2 -173 44.5t-121.5 110.5t-67 154.5t-9.5 178.5l171 988h112l-166 -988q-8 -68 3 -135t42.5 -121.5t85 -89.5t130.5 -38q81 -3 148 29.5t117.5 87.5t83 125t45.5 144l171 986h115z M1135 1821q-6 -39 -21 -77t-39.5 -67t-59 -47t-79.5 -18q-39 0 -70.5 18t-61 39.5t-60.5 39t-68 16.5q-27 0 -47.5 -10.5t-35.5 -27t-25 -37.5t-17 -44l-80 13q7 40 23.5 77t42 65.5t61 45t79.5 16.5q39 -1 70.5 -19t61.5 -39.5t61 -38.5t69 -16q27 1 47 12t35 28t25 39 t16 45z" />
<glyph unicode="&#x169;" d="M823 169q-68 -91 -160.5 -141.5t-207.5 -47.5q-92 2 -153 40t-95 99t-43.5 138.5t-0.5 158.5l112 666h118l-112 -669q-7 -58 -3.5 -116t24.5 -104.5t62.5 -76.5t111.5 -32q55 -2 112.5 12.5t108 44t89 73t55.5 100.5l130 768h121l-189 -1082h-111zM1042 1497 q-6 -39 -21 -77t-39.5 -67t-59 -47t-79.5 -18q-39 0 -70.5 18t-61 39.5t-60.5 39t-68 16.5q-27 0 -47.5 -10.5t-35.5 -27t-25 -37.5t-17 -44l-80 13q7 40 23.5 77t42 65.5t61 45t79.5 16.5q39 -1 70.5 -19t61.5 -39.5t61 -38.5t69 -16q27 1 47 12t35 28t25 39t16 45z" />
<glyph unicode="&#x16a;" d="M1189 1456l-167 -985q-15 -98 -59 -187.5t-111.5 -158t-156 -108t-193.5 -37.5q-99 2 -173 44.5t-121.5 110.5t-67 154.5t-9.5 178.5l171 988h112l-166 -988q-8 -68 3 -135t42.5 -121.5t85 -89.5t130.5 -38q81 -3 148 29.5t117.5 87.5t83 125t45.5 144l171 986h115z M1125 1683h-652l15 97h653z" />
<glyph unicode="&#x16b;" d="M823 169q-68 -91 -160.5 -141.5t-207.5 -47.5q-92 2 -153 40t-95 99t-43.5 138.5t-0.5 158.5l112 666h118l-112 -669q-7 -58 -3.5 -116t24.5 -104.5t62.5 -76.5t111.5 -32q55 -2 112.5 12.5t108 44t89 73t55.5 100.5l130 768h121l-189 -1082h-111zM1033 1359h-652l15 97 h653z" />
<glyph unicode="&#x16c;" d="M1189 1456l-167 -985q-15 -98 -59 -187.5t-111.5 -158t-156 -108t-193.5 -37.5q-99 2 -173 44.5t-121.5 110.5t-67 154.5t-9.5 178.5l171 988h112l-166 -988q-8 -68 3 -135t42.5 -121.5t85 -89.5t130.5 -38q81 -3 148 29.5t117.5 87.5t83 125t45.5 144l171 986h115z M1104 1832q-9 -60 -34.5 -108t-65 -82t-91 -51.5t-112.5 -16.5q-58 1 -105.5 19.5t-81 52.5t-51 81t-16.5 105l100 -1q-2 -77 37 -123t119 -48q42 -1 75 11t58.5 34.5t43 54.5t27.5 70z" />
<glyph unicode="&#x16d;" d="M823 169q-68 -91 -160.5 -141.5t-207.5 -47.5q-92 2 -153 40t-95 99t-43.5 138.5t-0.5 158.5l112 666h118l-112 -669q-7 -58 -3.5 -116t24.5 -104.5t62.5 -76.5t111.5 -32q55 -2 112.5 12.5t108 44t89 73t55.5 100.5l130 768h121l-189 -1082h-111zM1011 1508 q-9 -60 -34.5 -108t-65 -82t-91 -51.5t-112.5 -16.5q-58 1 -105.5 19.5t-81 52.5t-51 81t-16.5 105l100 -1q-2 -77 37 -123t119 -48q42 -1 75 11t58.5 34.5t43 54.5t27.5 70z" />
<glyph unicode="&#x16e;" d="M1189 1456l-167 -985q-15 -98 -59 -187.5t-111.5 -158t-156 -108t-193.5 -37.5q-99 2 -173 44.5t-121.5 110.5t-67 154.5t-9.5 178.5l171 988h112l-166 -988q-8 -68 3 -135t42.5 -121.5t85 -89.5t130.5 -38q81 -3 148 29.5t117.5 87.5t83 125t45.5 144l171 986h115z M629 1711q6 37 24.5 70.5t46.5 59t63 41t73 15.5q37 0 67.5 -15.5t51 -41.5t29.5 -59.5t3 -69.5q-6 -37 -24.5 -70t-46 -58t-62 -39.5t-72.5 -14.5t-68.5 15t-51 40t-30 58t-3.5 69zM704 1711q-4 -21 0 -40.5t14.5 -35t27.5 -25t39 -9.5q23 0 44 9t37.5 24.5t28 35.5 t16.5 41q4 21 1 41t-13 36t-27 26t-39 10q-23 0 -44.5 -9.5t-39 -25t-29.5 -36t-16 -42.5z" />
<glyph unicode="&#x16f;" d="M823 169q-68 -91 -160.5 -141.5t-207.5 -47.5q-92 2 -153 40t-95 99t-43.5 138.5t-0.5 158.5l112 666h118l-112 -669q-7 -58 -3.5 -116t24.5 -104.5t62.5 -76.5t111.5 -32q55 -2 112.5 12.5t108 44t89 73t55.5 100.5l130 768h121l-189 -1082h-111zM537 1387 q6 37 24.5 70.5t46.5 59t63 41t73 15.5q37 0 67.5 -15.5t51 -41.5t29.5 -59.5t3 -69.5q-6 -37 -24.5 -70t-46 -58t-62 -39.5t-72.5 -14.5t-68.5 15t-51 40t-30 58t-3.5 69zM612 1387q-4 -21 0 -40.5t14.5 -35t27.5 -25t39 -9.5q23 0 44 9t37.5 24.5t28 35.5t16.5 41 q4 21 1 41t-13 36t-27 26t-39 10q-23 0 -44.5 -9.5t-39 -25t-29.5 -36t-16 -42.5z" />
<glyph unicode="&#x170;" d="M1189 1456l-167 -985q-15 -98 -59 -187.5t-111.5 -158t-156 -108t-193.5 -37.5q-99 2 -173 44.5t-121.5 110.5t-67 154.5t-9.5 178.5l171 988h112l-166 -988q-8 -68 3 -135t42.5 -121.5t85 -89.5t130.5 -38q81 -3 148 29.5t117.5 87.5t83 125t45.5 144l171 986h115z M1115 1854h162l-342 -286h-130zM820 1854h149l-290 -287l-118 1z" />
<glyph unicode="&#x171;" d="M823 169q-68 -91 -160.5 -141.5t-207.5 -47.5q-92 2 -153 40t-95 99t-43.5 138.5t-0.5 158.5l112 666h118l-112 -669q-7 -58 -3.5 -116t24.5 -104.5t62.5 -76.5t111.5 -32q55 -2 112.5 12.5t108 44t89 73t55.5 100.5l130 768h121l-189 -1082h-111zM1022 1530h162 l-342 -286h-130zM727 1530h149l-290 -287l-118 1z" />
<glyph unicode="&#x172;" d="M1189 1456l-167 -985q-12 -77 -42.5 -150t-76 -134.5t-105.5 -108.5t-132 -72q-28 -18 -56 -40t-50.5 -47.5t-37.5 -55t-17 -63.5q-2 -35 15.5 -55.5t52.5 -22.5q29 -1 56 9t52 23l16 -85q-34 -20 -71 -31t-77 -11q-36 0 -65 12t-49 33.5t-30.5 51t-8.5 64.5 q2 58 32.5 106t74.5 86h-1q-99 2 -173 44.5t-121.5 110.5t-67 154.5t-9.5 178.5l171 988h112l-166 -988q-8 -68 3 -135t42.5 -121.5t85 -89.5t130.5 -38q81 -3 148 29.5t117.5 87.5t83 125t45.5 144l171 986h115z" />
<glyph unicode="&#x173;" d="M898 0l4 -2q-32 -19 -68 -43t-67 -53.5t-52.5 -64.5t-24.5 -77q-2 -35 15.5 -55.5t52.5 -22.5q29 -1 56 9t52 23l16 -85q-34 -20 -71 -31t-77 -11q-36 0 -65 12t-49 33.5t-30.5 51t-8.5 64.5q2 45 21.5 84.5t50 73t68 61t74.5 50.5l28 152q-68 -91 -160.5 -141.5 t-207.5 -47.5q-92 2 -153 40t-95 99t-43.5 138.5t-0.5 158.5l112 666h118l-112 -669q-7 -58 -3.5 -116t24.5 -104.5t62.5 -76.5t111.5 -32q55 -2 112.5 12.5t108 44t89 73t55.5 100.5l130 768h121l-189 -1082h-5z" />
<glyph unicode="&#x174;" d="M296 326l-7 -81l25 89l380 1122h104l30 -1131l-5 -86l23 94l320 1123h113l-427 -1456h-118l-24 1206l-404 -1206h-119l29 1456h111zM1039 1609l-2 -18h-107l-133 172l-192 -171l-109 -1l2 20l267 239h73z" />
<glyph unicode="&#x175;" d="M272 353l-3 -185l67 177l306 737h85l51 -737l4 -184l67 194l269 727h114l-421 -1082h-97l-57 745v160l-61 -170l-310 -735h-97l-45 1082h108zM995 1279l-2 -18h-107l-133 172l-192 -171l-109 -1l2 20l267 239h73z" />
<glyph unicode="&#x176;" d="M590 665l514 791h141l-615 -915l-96 -541h-112l95 556l-293 900h130zM1031 1602l-2 -18h-107l-133 172l-192 -171l-109 -1l2 20l267 239h73z" />
<glyph unicode="&#x177;" d="M514 220l9 -59l540 921h140l-758 -1256q-30 -53 -67.5 -101.5t-83.5 -85t-101 -58t-121 -20.5q-26 0 -52.5 4.5t-52.5 11.5l26 98q20 -3 41 -6t42 -3q47 0 86.5 17t72.5 45.5t60 65t49 73.5l103 168l-287 1047l124 1zM1004 1279l-2 -18h-107l-133 172l-192 -171l-109 -1 l2 20l267 239h73z" />
<glyph unicode="&#x178;" d="M590 665l514 791h141l-615 -915l-96 -541h-112l95 556l-293 900h130zM477 1722q1 16 8.5 31t19 26t26 18t31.5 7q34 0 57 -24t20 -58q-2 -33 -27 -56t-58 -24q-34 0 -56.5 23t-20.5 57zM902 1721q1 16 8 31t18.5 26t26.5 18t32 7q34 0 56.5 -24t20.5 -58 q-2 -33 -27.5 -56t-57.5 -24q-34 0 -56.5 23t-20.5 57z" />
<glyph unicode="&#x179;" d="M185 104h768l-17 -104h-905l14 99l934 1252h-716l17 105h856l-13 -94zM910 1823h151l-266 -265h-106z" />
<glyph unicode="&#x17a;" d="M223 101h766l-16 -101h-925l16 93l849 886h-689l16 103h852l-16 -93zM882 1499h151l-266 -265h-106z" />
<glyph unicode="&#x17b;" d="M185 104h768l-17 -104h-905l14 99l934 1252h-716l17 105h856l-13 -94zM692 1705q3 35 28.5 59t60.5 25q36 1 59.5 -23.5t20.5 -60.5q-2 -35 -28 -58.5t-61 -24.5q-18 0 -33 6t-26 17t-16.5 26.5t-4.5 33.5z" />
<glyph unicode="&#x17c;" d="M223 101h766l-16 -101h-925l16 93l849 886h-689l16 103h852l-16 -93zM664 1381q3 35 28.5 59t60.5 25q36 1 59.5 -23.5t20.5 -60.5q-2 -35 -28 -58.5t-61 -24.5q-18 0 -33 6t-26 17t-16.5 26.5t-4.5 33.5z" />
<glyph unicode="&#x17d;" d="M185 104h768l-17 -104h-905l14 99l934 1252h-716l17 105h856l-13 -94zM764 1663l201 182l107 1l-1 -16l-267 -248h-85l-193 247l2 18l104 -1z" />
<glyph unicode="&#x17e;" d="M223 101h766l-16 -101h-925l16 93l849 886h-689l16 103h852l-16 -93zM736 1339l201 182l107 1l-1 -16l-267 -248h-85l-193 247l2 18l104 -1z" />
<glyph unicode="&#x17f;" d="M369 0l202 1179q13 87 48.5 159.5t91.5 124t130.5 79.5t164.5 27q38 -1 75 -7t74 -14l-27 -95q-28 8 -56.5 12t-57.5 4q-66 0 -120.5 -21t-96 -59t-68.5 -90.5t-37 -115.5l-202 -1183h-121z" />
<glyph unicode="&#x192;" d="M984 984h-281l-163 -1055q-11 -80 -42 -148t-81 -117.5t-118.5 -76.5t-152.5 -26q-38 1 -75 9t-73 22l24 97q31 -12 64 -19t66 -8q59 -1 105 20.5t80 58t54.5 85.5t28.5 103l162 1055h-204l15 98h205l17 127q11 85 47 152.5t92 114t129.5 70t158.5 22.5q44 -1 86 -9 t84 -19l-26 -98q-34 11 -68.5 17t-69.5 6q-61 1 -114 -16t-94.5 -49.5t-68.5 -80.5t-36 -110l-17 -127h282z" />
<glyph unicode="&#x1a0;" d="M1074 632q-13 -74 -36 -152t-58 -151t-81.5 -137.5t-106.5 -112.5t-133.5 -75t-160.5 -24q-83 2 -146 32.5t-108 80t-73.5 114.5t-42.5 136.5t-15 145.5t9 142l31 192q12 74 35.5 151.5t58.5 151t82 138t107 112.5t133.5 75t160.5 25q58 -2 106.5 -17.5t87.5 -42 t69 -62.5t52 -79q50 9 84 32.5t56.5 58.5t36.5 78t24 91l104 1q-8 -68 -28 -125.5t-53 -102.5t-79.5 -75.5t-109.5 -43.5q27 -88 32 -183t-7 -183zM988 827q7 51 9 110.5t-5 119t-24.5 115t-49.5 98.5t-80 70t-116 29q-70 2 -128 -21.5t-105 -64.5t-83 -96t-62.5 -116.5 t-44.5 -124.5t-28 -121l-32 -195q-7 -51 -9 -110.5t5 -119t25 -115.5t50 -99t80 -70t116 -29q71 -3 129 20.5t105 64.5t82.5 96t62 116t44 125t27.5 122z" />
<glyph unicode="&#x1a1;" d="M104 550q9 71 32 140t58 131t82.5 114.5t105.5 90t126 58t146 18.5q97 -2 168.5 -39t119.5 -98q52 4 88 22.5t61 48.5t40 70.5t24 88.5l103 1q-16 -133 -79.5 -213t-184.5 -103q33 -71 44.5 -153t2.5 -167l-4 -34q-14 -107 -58.5 -206.5t-115 -176t-166 -121.5 t-210.5 -42q-110 3 -188.5 50t-126 122.5t-65.5 171t-7 193.5zM219 516q-8 -73 1 -149t41 -139t88.5 -104t143.5 -44q92 -3 166 36t128 103t87 145t45 163l4 32q8 73 -1 150t-41 141t-89 106t-144 45q-93 3 -166.5 -37t-127.5 -104.5t-87 -146.5t-44 -163z" />
<glyph unicode="&#x1af;" d="M1189 1456l-33 -195q51 10 87 33.5t60 58.5t39 80t25 99l101 1q-9 -80 -32.5 -144t-63 -110.5t-97 -75t-135.5 -37.5l-118 -695q-15 -98 -59 -187.5t-111.5 -158t-156 -108t-193.5 -37.5q-99 2 -173 44.5t-121.5 110.5t-67 154.5t-9.5 178.5l171 988h112l-166 -988 q-8 -68 3 -135t42.5 -121.5t85 -89.5t130.5 -38q81 -3 148 29.5t117.5 87.5t83 125t45.5 144l171 986h115z" />
<glyph unicode="&#x1b0;" d="M823 169q-68 -91 -160.5 -141.5t-207.5 -47.5q-92 2 -153 40t-95 99t-43.5 138.5t-0.5 158.5l112 666h118l-112 -669q-7 -58 -3.5 -116t24.5 -104.5t62.5 -76.5t111.5 -32q55 -2 112.5 12.5t108 44t89 73t55.5 100.5l130 768h121l-24 -138q44 9 76 29t54.5 49.5t37 69 t23.5 89.5l102 1q-19 -152 -93.5 -235t-216.5 -99l-148 -848h-111z" />
<glyph unicode="&#x1f0;" d="M340 1082h519l-185 -1082q-14 -95 -51 -175.5t-95.5 -139.5t-139 -92t-180.5 -32q-53 0 -104.5 5.5t-103.5 13.5l21 98q45 -7 91.5 -10t92.5 -4q78 -1 138.5 24t104 70t70 107t37.5 135l166 975h-400zM838 1376l201 182l107 1l-1 -16l-267 -248h-85l-193 247l2 18l104 -1 z" />
<glyph unicode="&#x1fa;" d="M845 406h-534l-196 -406h-125l713 1456h107l204 -1456h-115zM362 513h469l-101 761zM968 1993h148l-230 -185h-105zM633 1595q1 32 14 61t34.5 51t50.5 35.5t61 13.5q31 0 57 -12t45.5 -32.5t30 -47.5t9.5 -57q-1 -32 -13.5 -60t-33.5 -49.5t-49.5 -34.5t-59.5 -13 q-30 0 -57 11t-47 30.5t-31.5 46.5t-10.5 57zM701 1597q2 -16 6.5 -30.5t12.5 -26t20.5 -18.5t31.5 -7q17 0 33.5 8t29.5 20.5t22 28.5t11 33q2 16 -2 31.5t-13 27.5t-22.5 19.5t-29.5 7.5q-21 0 -37 -8t-28 -21.5t-20.5 -30.5t-14.5 -34z" />
<glyph unicode="&#x1fb;" d="M810 0q-5 39 -3.5 77.5t7.5 78.5q-78 -82 -179 -130t-217 -46q-65 2 -122.5 23t-100 59.5t-65.5 93t-19 123.5t30 122t67 92t94.5 65.5t112.5 42t120 22.5t119 7l233 -1l18 124q6 59 -10 104.5t-49 77t-80 48.5t-103 19q-55 1 -107 -12t-95 -40.5t-75 -69t-46 -96.5h-117 q13 80 57 140t106 100t137 59.5t151 18.5q78 -2 145.5 -26t115.5 -69t72.5 -109.5t16.5 -147.5l-87 -524q-9 -55 -7 -107t4 -106l-1 -13h-123zM436 86q61 -2 118 12t107.5 42t93.5 68.5t76 90.5l41 238l-203 1q-43 0 -90.5 -3.5t-94.5 -13.5t-91 -28t-78.5 -45.5t-57 -66.5 t-27.5 -92q-5 -48 10.5 -85t44 -63t68 -40t83.5 -15zM918 1673h148l-230 -185h-105zM583 1275q1 32 14 61t34.5 51t50.5 35.5t61 13.5q31 0 57 -12t45.5 -32.5t30 -47.5t9.5 -57q-1 -32 -13.5 -60t-33.5 -49.5t-49.5 -34.5t-59.5 -13q-30 0 -57 11t-47 30.5t-31.5 46.5 t-10.5 57zM651 1277q2 -16 6.5 -30.5t12.5 -26t20.5 -18.5t31.5 -7q17 0 33.5 8t29.5 20.5t22 28.5t11 33q2 16 -2 31.5t-13 27.5t-22.5 19.5t-29.5 7.5q-21 0 -37 -8t-28 -21.5t-20.5 -30.5t-14.5 -34z" />
<glyph unicode="&#x1fc;" d="M1033 0h-490l62 389h-327l-204 -389h-129l789 1456h523l-18 -102h-370l-87 -545h322l-18 -102h-320l-97 -606h382zM337 502h286l126 783zM987 1829h151l-266 -265h-106z" />
<glyph unicode="&#x1fd;" d="M772 -19q-44 1 -84 12t-74 32.5t-59.5 53t-40.5 73.5q-26 -37 -57 -69t-67.5 -55t-78.5 -36t-89 -12q-63 1 -108 26t-73.5 66t-41 94t-8.5 110q6 83 38.5 149.5t86 112.5t124 71t152.5 25l133 -2l25 171q4 38 0 73t-18.5 62.5t-42 44.5t-71.5 18t-78.5 -13t-60.5 -39.5 t-42.5 -60.5t-23.5 -75l-113 4q8 66 35 119t69.5 90.5t99.5 57.5t124 19q38 -1 74 -9.5t66 -25.5t53 -44.5t35 -65.5q49 64 113.5 104.5t148.5 39.5q78 -2 129.5 -35.5t81 -87t38.5 -120t1 -133.5l-29 -188h-514l-21 -134q-7 -55 -3 -111.5t25 -103t61.5 -76.5t108.5 -31 q33 0 63 7.5t57.5 21t53.5 31.5t51 38l27 -88q-54 -57 -125.5 -85t-150.5 -26zM245 79q32 0 61.5 10t56 27t49 39t41.5 46l57 335l-119 2q-57 -1 -106 -21.5t-86.5 -56t-60.5 -83.5t-29 -105q-3 -36 2.5 -70.5t22 -61.5t44 -44t67.5 -17zM636 636h408l14 110q4 41 -0.5 85.5 t-21.5 82t-48.5 62t-81.5 25.5q-65 2 -111 -30t-77 -81.5t-49 -108.5t-27 -111zM873 1508h151l-266 -265h-106z" />
<glyph unicode="&#x1fe;" d="M1068 632q-12 -74 -35.5 -152t-58.5 -151t-81.5 -137.5t-106.5 -112.5t-133.5 -75t-160.5 -24q-88 2 -152 34t-110 86l-137 -184h-110l195 262q-26 49 -42 105.5t-23 115.5t-6 118t9 114l31 192q12 74 35.5 151.5t58.5 151t82 138t107 112.5t133.5 75t160.5 25 q105 -3 177.5 -49t118.5 -119l147 197h110l-213 -287q17 -46 27 -95.5t14 -100.5t2 -101.5t-8 -97.5zM233 630q-6 -39 -8.5 -82.5t0 -89t9.5 -90.5t21 -86l692 928q-30 67 -86 111.5t-145 47.5q-70 2 -128 -21.5t-105 -64.5t-83 -96t-62.5 -116.5t-44.5 -124.5t-28 -121z M982 827q8 62 9.5 134.5t-12.5 142.5l-680 -911q32 -47 81 -75.5t120 -30.5q71 -3 129 20.5t105 64.5t82.5 96t62 116t44 125t27.5 122zM959 1891h151l-266 -265h-106z" />
<glyph unicode="&#x1ff;" d="M119 550q9 71 32 140t58 131t82.5 114.5t105.5 90t126 58t146 18.5q54 -2 100 -14t85 -34l103 159h93l-133 -205q43 -39 72.5 -90t46.5 -109.5t22 -121.5t-2 -127l-4 -34q-14 -107 -58.5 -206.5t-115 -176t-166 -121.5t-210.5 -42q-63 2 -114 17.5t-93 43.5l-116 -180 h-102l153 235q-36 39 -60.5 87.5t-39 103t-18 113t2.5 117.5zM938 559q5 46 3.5 94t-11.5 94.5t-28.5 88.5t-46.5 75l-502 -779q30 -23 68.5 -36.5t86.5 -15.5q92 -3 166 36t128 103t87 145t45 163zM234 516q-5 -41 -4 -84t8 -84.5t21 -80.5t36 -72l500 768q-27 17 -60 26.5 t-72 11.5q-93 3 -166.5 -37t-127.5 -104.5t-87 -146.5t-44 -163zM842 1506h151l-266 -265h-106z" />
<glyph unicode="&#x218;" d="M921 366q5 47 -5 85t-30.5 68.5t-50 55t-64 44t-72 35.5t-74.5 30q-70 26 -139 60.5t-123 83t-85.5 113.5t-25.5 151q4 61 26.5 114t58.5 96t82.5 76t99.5 55.5t110.5 33t114.5 9.5q90 -2 165.5 -35t128.5 -89.5t80.5 -133t23.5 -166.5h-119q-1 66 -19.5 123t-54 100 t-88.5 68.5t-122 27.5q-63 2 -125.5 -16t-113.5 -53.5t-85.5 -88t-40.5 -119.5t19 -115.5t68 -83.5t97.5 -59t107.5 -43q73 -26 144 -62.5t125 -87.5t85 -119t24 -156q-5 -64 -27.5 -118t-59 -97.5t-84.5 -76t-102.5 -54.5t-113.5 -32.5t-118 -9.5q-93 1 -174.5 31.5 t-141 86t-92 133.5t-28.5 174h118q1 -73 24.5 -131.5t65.5 -100t101 -65t132 -24.5q66 -2 130.5 15.5t117 53t87.5 89t42 124.5zM566 -161q-12 -86 -52 -159.5t-103 -131.5l-71 55q41 54 69 110.5t41 122.5l15 76l110 -1z" />
<glyph unicode="&#x219;" d="M868 282q6 55 -18.5 92t-65 62t-89 40t-89.5 25q-39 10 -81 22t-82.5 29t-76 39t-62 52t-41 68.5t-11.5 88.5q3 53 23.5 96t53 77t74.5 58.5t89 40.5t95.5 23.5t94.5 6.5q74 -1 142.5 -21.5t120.5 -60.5t82.5 -100.5t29.5 -141.5l-118 1q2 55 -20 96t-58.5 68.5 t-84.5 41.5t-98 15q-47 1 -98.5 -9.5t-96 -33.5t-75.5 -61t-37 -92t18.5 -89t64.5 -57.5t87.5 -35t88.5 -22.5q40 -10 83 -22.5t83.5 -30.5t76.5 -41.5t62 -55t40 -71.5t11 -90q-3 -56 -24.5 -101t-55 -79.5t-78 -59.5t-93 -40.5t-100 -22.5t-99.5 -6q-74 1 -146 20.5 t-128.5 59.5t-91 100.5t-33.5 143.5h118q2 -60 26.5 -102t64 -68.5t90 -39t104.5 -13.5q48 0 103 9.5t102.5 33t81.5 62.5t41 96zM554 -158q-12 -86 -52 -159.5t-103 -131.5l-71 55q41 54 69 110.5t41 122.5l15 76l110 -1z" />
<glyph unicode="&#x21a;" d="M1236 1351h-449l-235 -1351h-116l235 1351h-451l19 105h1016zM536 -151q-12 -86 -52 -159.5t-103 -131.5l-71 55q41 54 69 110.5t41 122.5l15 76l110 -1z" />
<glyph unicode="&#x21b;" d="M708 1359l-49 -277h390l-18 -98h-388l-114 -682q-11 -101 35.5 -157t148.5 -59q48 -2 95 4.5t94 14.5l9 -92q-54 -19 -110.5 -26.5t-113.5 -5.5q-74 1 -129 25t-90.5 66t-50.5 101t-9 131l113 680h-292l18 98h291l49 277h121zM671 -151q-12 -86 -52 -159.5t-103 -131.5 l-71 55q41 54 69 110.5t41 122.5l15 76l110 -1z" />
<glyph unicode="&#x237;" d="M340 1082h519l-185 -1082q-14 -95 -51 -175.5t-95.5 -139.5t-139 -92t-180.5 -32q-53 0 -104.5 5.5t-103.5 13.5l21 98q45 -7 91.5 -10t92.5 -4q78 -1 138.5 24t104 70t70 107t37.5 135l166 975h-400z" />
<glyph unicode="&#x259;" d="M671 1101q107 -3 186 -48.5t128.5 -119t69.5 -166.5t10 -191l-7 -57q-14 -102 -59 -200t-115.5 -174.5t-164.5 -122t-205 -42.5q-98 3 -171 40.5t-119 100t-64.5 145t-7.5 175.5l15 102h775l5 30q10 73 -0.5 148t-45 135.5t-92.5 100t-142 42.5q-99 4 -187.5 -26.5 t-165.5 -91.5l-42 84q82 74 186 106.5t213 29.5zM521 81q79 -2 143.5 28.5t114.5 82t86.5 117t59.5 132.5h-655l-5 -30q-9 -65 4 -124t46 -104t85 -72.5t121 -29.5z" />
<glyph unicode="&#x2bc;" d="M828 1423q-16 -99 -64 -183t-122 -150l-69 56q51 61 86 128.5t49 145.5l22 126h117z" />
<glyph unicode="&#x2c6;" d="M938 1276l-2 -18h-107l-133 172l-192 -171l-109 -1l2 20l267 239h73z" />
<glyph unicode="&#x2c7;" d="M715 1328l201 182l107 1l-1 -16l-267 -248h-85l-193 247l2 18l104 -1z" />
<glyph unicode="&#x2d8;" d="M1010 1473q-9 -60 -34.5 -108t-65 -82t-91 -51.5t-112.5 -16.5q-58 1 -105.5 19.5t-81 52.5t-51 81t-16.5 105l100 -1q-2 -77 37 -123t119 -48q42 -1 75 11t58.5 34.5t43 54.5t27.5 70z" />
<glyph unicode="&#x2d9;" d="M645 1378q3 35 28.5 59t60.5 25q36 1 59.5 -23.5t20.5 -60.5q-2 -35 -28 -58.5t-61 -24.5q-18 0 -33 6t-26 17t-16.5 26.5t-4.5 33.5z" />
<glyph unicode="&#x2da;" d="M546 1348q6 37 24.5 70.5t46.5 59t63 41t73 15.5q37 0 67.5 -15.5t51 -41.5t29.5 -59.5t3 -69.5q-6 -37 -24.5 -70t-46 -58t-62 -39.5t-72.5 -14.5t-68.5 15t-51 40t-30 58t-3.5 69zM621 1348q-4 -21 0 -40.5t14.5 -35t27.5 -25t39 -9.5q23 0 44 9t37.5 24.5t28 35.5 t16.5 41q4 21 1 41t-13 36t-27 26t-39 10q-23 0 -44.5 -9.5t-39 -25t-29.5 -36t-16 -42.5z" />
<glyph unicode="&#x2db;" d="M597 -2q-32 -19 -68 -43t-67 -53.5t-52.5 -64.5t-24.5 -77q-2 -35 15.5 -55.5t52.5 -22.5q29 -1 56 9t52 23l16 -85q-34 -20 -71 -31t-77 -11q-36 0 -65 12t-49 33.5t-30.5 51t-8.5 64.5q2 51 26.5 94.5t61.5 79.5t80 65t83 52z" />
<glyph unicode="&#x2dc;" d="M910 1484q-6 -39 -21 -77t-39.5 -67t-59 -47t-79.5 -18q-39 0 -70.5 18t-61 39.5t-60.5 39t-68 16.5q-27 0 -47.5 -10.5t-35.5 -27t-25 -37.5t-17 -44l-80 13q7 40 23.5 77t42 65.5t61 45t79.5 16.5q39 -1 70.5 -19t61.5 -39.5t61 -38.5t69 -16q27 1 47 12t35 28t25 39 t16 45z" />
<glyph unicode="&#x2dd;" d="M928 1527h162l-342 -286h-130zM633 1527h149l-290 -287l-118 1z" />
<glyph unicode="&#x2f3;" d="M302 -225q4 27 18.5 51t35.5 42t47.5 29t53.5 11t50 -11t38.5 -30t22.5 -43t3 -51t-18 -50t-34.5 -40.5t-46 -28t-52.5 -10.5t-50.5 10.5t-40 28t-24 41.5t-3.5 51zM373 -227q4 -23 13 -41.5t38 -18.5q12 0 25 5t23.5 13.5t18.5 20t10 23.5q5 23 -9.5 43t-38.5 20 q-16 1 -28 -4.5t-21.5 -15t-17 -21.5t-13.5 -24z" />
<glyph unicode="&#x300;" horiz-adv-x="546" d="M-427 1227l-98 1l-123 318l119 1z" />
<glyph unicode="&#x301;" horiz-adv-x="546" d="M-366 1547h127l-230 -317h-95z" />
<glyph unicode="&#x303;" horiz-adv-x="546" d="M-116 1484q-6 -39 -21 -77t-39.5 -67t-59 -47t-79.5 -18q-39 0 -70.5 18t-61 39.5t-60.5 39t-68 16.5q-27 0 -47.5 -10.5t-35.5 -27t-25 -37.5t-17 -44l-80 13q7 40 23.5 77t42 65.5t61 45t79.5 16.5q39 -1 70.5 -19t61.5 -39.5t61 -38.5t69 -16q27 1 47 12t35 28t25 39 t16 45z" />
<glyph unicode="&#x309;" horiz-adv-x="546" d="M-524 1234l19 124q24 3 54 7t57 14.5t47 29t23 50.5t-16.5 50t-48 26t-60 10t-52.5 3l13 76q38 -2 84.5 -9t86.5 -25t66 -49.5t24 -81.5q-2 -40 -19 -68.5t-44 -48t-60.5 -30.5t-68.5 -16l-10 -63z" />
<glyph unicode="&#x30f;" horiz-adv-x="546" d="M-600 1252h-126l-248 266h158zM-365 1252h-113l-197 266h145z" />
<glyph unicode="&#x323;" horiz-adv-x="546" d="M-891 -226q2 35 28 59t61 25q17 0 32.5 -6t26.5 -17.5t16.5 -27t4.5 -33.5q-1 -17 -9 -32t-20 -26.5t-28 -18t-33 -6.5q-18 0 -33 6t-25.5 17.5t-16 26.5t-4.5 33z" />
<glyph unicode="&#x384;" d="M817 1617h135l-197 -328h-75z" />
<glyph unicode="&#x385;" d="M806 1691h143l-122 -252h-100zM460 1391q2 34 27 58.5t60 25.5q17 0 32 -6.5t25.5 -17.5t16 -26.5t4.5 -33.5q-1 -17 -8.5 -32t-19.5 -26t-27.5 -18t-32.5 -7q-35 -1 -57 23.5t-20 59.5zM908 1391q3 34 27.5 58.5t59.5 25.5t58 -24t21 -60q-3 -34 -28.5 -58t-60.5 -25 t-57 23.5t-20 59.5z" />
<glyph unicode="&#x386;" d="M845 406h-534l-196 -406h-125l713 1456h107l204 -1456h-115zM362 513h469l-101 761zM522 1617h135l-197 -328h-75z" />
<glyph unicode="&#x387;" d="M560 717q3 34 28.5 58.5t60.5 25.5q17 0 32 -6.5t26 -17.5t16.5 -26.5t4.5 -33.5q-1 -17 -8.5 -32t-19.5 -26t-28 -18t-33 -7q-35 -1 -58 23.5t-21 59.5z" />
<glyph unicode="&#x388;" horiz-adv-x="1302" d="M1052 698h-623l-103 -594h718l-18 -104h-836l252 1456h833l-19 -105h-714l-95 -549h623zM309 1618h135l-197 -328h-75z" />
<glyph unicode="&#x389;" horiz-adv-x="1302" d="M1034 0h-112l121 698h-660l-122 -698h-112l253 1456h112l-114 -654h661l114 654h112zM291 1619h135l-197 -328h-75z" />
<glyph unicode="&#x38a;" horiz-adv-x="1302" d="M435 1456h820l-19 -108h-354l-215 -1242h354l-19 -106h-820l19 106h343l215 1242h-344zM275 1619h135l-197 -328h-75z" />
<glyph unicode="&#x38c;" horiz-adv-x="1222" d="M1098 632q-13 -74 -36 -152t-58 -151t-81.5 -137.5t-106.5 -112.5t-133.5 -75t-160.5 -24q-83 2 -146 32.5t-108 80t-73.5 114.5t-42.5 136.5t-15 145.5t9 142l31 192q12 74 35.5 151.5t58.5 151t82 138t107 112.5t133.5 75t160.5 25q84 -2 147 -32.5t108 -80.5t73 -115 t41.5 -137t14 -146t-8.5 -142zM1012 827q7 51 9 110.5t-5 119t-24.5 115t-49.5 98.5t-80 70t-116 29q-71 2 -128.5 -21.5t-104.5 -64.5t-83 -96t-62.5 -116.5t-44.5 -124.5t-28 -121l-32 -195q-7 -51 -9 -110.5t5 -119t25 -115.5t50 -99t80 -70t116 -29q71 -3 129 20.5 t105 64.5t82.5 96t62 116t44 125t27.5 122zM282 1617h135l-197 -328h-75z" />
<glyph unicode="&#x38e;" horiz-adv-x="1302" d="M690 665l514 791h141l-615 -915l-96 -541h-112l95 556l-293 900h130zM214 1617h135l-197 -328h-75z" />
<glyph unicode="&#x38f;" horiz-adv-x="1222" d="M609 133q94 39 162.5 103.5t115.5 146t76 174.5t44 188l15 102q7 52 8.5 111t-6.5 117t-27 111t-52 94.5t-81.5 67t-116.5 27.5q-70 2 -129 -20t-106.5 -61t-85 -91.5t-64.5 -112t-45.5 -122.5t-27.5 -122l-15 -102q-8 -52 -12 -110t-1.5 -116.5t13.5 -115.5t34 -107.5 t60 -92t92 -68.5l-22 -134h-419l19 101l295 3q-65 60 -105 136.5t-60 160.5t-22.5 172t9.5 172l14 99q12 75 36 151.5t60 147.5t84.5 132.5t109.5 107t134.5 70.5t159.5 23q83 -2 146.5 -30.5t109.5 -75.5t76 -109.5t45 -132t17 -142.5t-7 -142l-15 -99q-15 -97 -47 -191 t-82 -178t-117.5 -155t-154.5 -122l300 2l-18 -101h-418zM277 1617h135l-197 -328h-75z" />
<glyph unicode="&#x390;" d="M283 1082h445l-132 -793q-11 -97 29.5 -151.5t140.5 -55.5q40 0 78 8.5t76 19.5l16 -88q-94 -44 -197 -41q-73 1 -125.5 23.5t-85 63t-45 98t-6.5 128.5l111 681h-324zM736 1646h143l-122 -252h-100zM390 1346q2 34 27 58.5t60 25.5q17 0 32 -6.5t25.5 -17.5t16 -26.5 t4.5 -33.5q-1 -17 -8.5 -32t-19.5 -26t-27.5 -18t-32.5 -7q-35 -1 -57 23.5t-20 59.5zM838 1346q3 34 27.5 58.5t59.5 25.5t58 -24t21 -60q-3 -34 -28.5 -58t-60.5 -25t-57 23.5t-20 59.5z" />
<glyph unicode="&#x391;" d="M845 406h-534l-196 -406h-125l713 1456h107l204 -1456h-115zM362 513h469l-101 761z" />
<glyph unicode="&#x392;" d="M83 0l253 1456l379 -1q82 -3 156.5 -27.5t129.5 -71t84.5 -115t21.5 -158.5q-5 -64 -30 -115t-63.5 -90.5t-89 -69t-106.5 -51.5q56 -18 99.5 -51t72 -78t41 -98.5t8.5 -111.5q-7 -98 -51.5 -175.5t-113.5 -131.5t-157 -82.5t-181 -28.5h-453zM324 700l-104 -596l323 -2 q70 1 134.5 23t116 62.5t85 98.5t41.5 130q6 61 -10 111.5t-49.5 87.5t-82.5 59t-109 25zM341 803l278 -2q65 0 128 18.5t114 54.5t85 89t42 123q7 65 -13 113.5t-58 81t-90.5 50t-111.5 19.5l-278 1z" />
<glyph unicode="&#x393;" d="M1164 1354h-731l-235 -1354h-119l253 1456h850z" />
<glyph unicode="&#x395;" d="M952 698h-623l-103 -594h718l-18 -104h-836l252 1456h833l-19 -105h-714l-95 -549h623z" />
<glyph unicode="&#x396;" d="M185 104h768l-17 -104h-905l14 99l934 1252h-716l17 105h856l-13 -94z" />
<glyph unicode="&#x397;" d="M934 0h-112l121 698h-660l-122 -698h-112l253 1456h112l-114 -654h661l114 654h112z" />
<glyph unicode="&#x398;" d="M839 676h-476l18 101h476zM1078 632q-13 -74 -36 -152t-58 -151t-81.5 -137.5t-106.5 -112.5t-133.5 -75t-160.5 -24q-83 2 -146 32.5t-108 80t-73.5 114.5t-42.5 136.5t-15 145.5t9 142l31 192q12 74 35.5 151.5t58.5 151t82 138t107 112.5t133.5 75t160.5 25 q84 -2 147 -32.5t108 -80.5t73 -115t41.5 -137t14 -146t-8.5 -142zM992 827q7 51 9 110.5t-5 119t-24.5 115t-49.5 98.5t-80 70t-116 29q-71 2 -128.5 -21.5t-104.5 -64.5t-83 -96t-62.5 -116.5t-44.5 -124.5t-28 -121l-32 -195q-7 -51 -9 -110.5t5 -119t25 -115.5t50 -99 t80 -70t116 -29q71 -3 129 20.5t105 64.5t82.5 96t62 116t44 125t27.5 122z" />
<glyph unicode="&#x399;" d="M335 1456h820l-19 -108h-354l-215 -1242h354l-19 -106h-820l19 106h343l215 1242h-344z" />
<glyph unicode="&#x39a;" d="M518 719l-220 -202l-89 -517h-121l254 1456h120l-136 -771l227 222l552 549h157l-655 -653l432 -803h-135z" />
<glyph unicode="&#x39b;" d="M722 1277l-627 -1277h-127l725 1456h111l220 -1456h-117z" />
<glyph unicode="&#x39c;" d="M459 1456l140 -820l444 820h158l-253 -1456h-117l113 648l119 632l-455 -842h-78l-144 843l-102 -639l-111 -642h-117l253 1456h150z" />
<glyph unicode="&#x39d;" d="M934 0h-115l-435 1231l-215 -1231h-118l253 1456h114l435 -1229l215 1229h118z" />
<glyph unicode="&#x39e;" d="M61 101h893l-18 -101h-893zM273 784h697l-18 -102h-698zM307 1456h856l-18 -102h-857z" />
<glyph unicode="&#x39f;" d="M1078 632q-13 -74 -36 -152t-58 -151t-81.5 -137.5t-106.5 -112.5t-133.5 -75t-160.5 -24q-83 2 -146 32.5t-108 80t-73.5 114.5t-42.5 136.5t-15 145.5t9 142l31 192q12 74 35.5 151.5t58.5 151t82 138t107 112.5t133.5 75t160.5 25q84 -2 147 -32.5t108 -80.5t73 -115 t41.5 -137t14 -146t-8.5 -142zM992 827q7 51 9 110.5t-5 119t-24.5 115t-49.5 98.5t-80 70t-116 29q-71 2 -128.5 -21.5t-104.5 -64.5t-83 -96t-62.5 -116.5t-44.5 -124.5t-28 -121l-32 -195q-7 -51 -9 -110.5t5 -119t25 -115.5t50 -99t80 -70t116 -29q71 -3 129 20.5 t105 64.5t82.5 96t62 116t44 125t27.5 122z" />
<glyph unicode="&#x3a0;" d="M920 0h-118l236 1354h-622l-235 -1354h-118l253 1456h857z" />
<glyph unicode="&#x3a1;" d="M328 600l-105 -600h-119l253 1456l438 -1q89 -3 162.5 -36t124.5 -88.5t76 -132t17 -166.5q-9 -101 -54 -181t-115 -136t-158.5 -86t-185.5 -30zM345 701l321 -2q74 0 141 23.5t119.5 67t86.5 104.5t43 137q7 66 -8 123t-49.5 100t-87 69.5t-119.5 29.5l-334 1z" />
<glyph unicode="&#x3a3;" d="M765 743l-583 -641h828l-18 -102h-980l17 99l617 666l-397 604l16 87h926l-18 -102h-776l372 -574z" />
<glyph unicode="&#x3a4;" d="M1236 1351h-449l-235 -1351h-116l235 1351h-451l19 105h1016z" />
<glyph unicode="&#x3a5;" d="M590 665l514 791h141l-615 -915l-96 -541h-112l95 556l-293 900h130z" />
<glyph unicode="&#x3a6;" d="M765 1257q100 -10 175 -56t122.5 -117t67 -160t9.5 -184q-12 -110 -57.5 -205.5t-118 -167.5t-168 -115.5t-206.5 -49.5l-39 -202h-117l39 203q-101 10 -176 56.5t-122 117.5t-66.5 160.5t-8.5 184.5q12 110 57.5 205.5t117.5 167t167.5 114.5t206.5 49l38 198h117z M1021 740q9 74 -1.5 144.5t-42.5 127.5t-87 95.5t-136 48.5l-151 -855q89 7 161.5 44t126 96.5t86.5 136t44 162.5zM217 722q-9 -74 1 -145t41.5 -128.5t87 -96t136.5 -48.5l152 854q-89 -7 -161.5 -44t-126 -95.5t-87 -134.5t-43.5 -162z" />
<glyph unicode="&#x3a7;" d="M643 836l455 620h146l-543 -724l322 -732h-132l-269 640l-471 -640h-146l560 744l-312 712h133z" />
<glyph unicode="&#x3a8;" d="M644 471q82 12 146.5 50.5t111.5 95.5t76.5 128.5t42.5 149.5l97 561h117l-95 -561q-17 -106 -58 -197t-106.5 -160.5t-153.5 -113t-198 -53.5l-68 -371h-119l69 372q-99 15 -168 63.5t-110 120t-54.5 159t-1.5 180.5l95 561h118l-94 -562q-9 -69 -2.5 -137t32 -125.5 t74 -99t123.5 -56.5l173 980h116z" />
<glyph unicode="&#x3aa;" d="M335 1456h820l-19 -108h-354l-215 -1242h354l-19 -106h-820l19 106h343l215 1242h-344zM477 1729q1 16 8.5 31t19 26t26 18t31.5 7q34 0 57 -24t20 -58q-2 -33 -27 -56t-58 -24q-34 0 -56.5 23t-20.5 57zM902 1728q1 16 8 31t18.5 26t26.5 18t32 7q34 0 56.5 -24 t20.5 -58q-2 -33 -27.5 -56t-57.5 -24q-34 0 -56.5 23t-20.5 57z" />
<glyph unicode="&#x3ab;" d="M590 665l514 791h141l-615 -915l-96 -541h-112l95 556l-293 900h130zM477 1722q1 16 8.5 31t19 26t26 18t31.5 7q34 0 57 -24t20 -58q-2 -33 -27 -56t-58 -24q-34 0 -56.5 23t-20.5 57zM902 1721q1 16 8 31t18.5 26t26.5 18t32 7q34 0 56.5 -24t20.5 -58 q-2 -33 -27.5 -56t-57.5 -24q-34 0 -56.5 23t-20.5 57z" />
<glyph unicode="&#x3ac;" d="M1039 1082l-139 -819q-2 -21 -4 -50t2.5 -56t19 -46.5t45.5 -20.5q14 -1 27 1.5t27 4.5l8 -94q-22 -9 -43.5 -15t-46.5 -6q-40 0 -69 14t-48 38.5t-28.5 57t-10.5 69.5q-34 -41 -72.5 -75t-83 -58t-94 -37t-104.5 -11q-70 2 -122 26.5t-88.5 64t-59.5 92t-34 110.5 t-12.5 118.5t5.5 117.5l3 22q9 64 27 132t45.5 132t66 121t88.5 99.5t113 66.5t139 22q99 -2 177 -51.5t120 -138.5l64 169h82zM236 505q-6 -42 -7 -90t4.5 -94.5t20 -89.5t40.5 -76t65 -53.5t94 -22.5t103.5 14.5t90 45.5t76 68t62.5 84l80 482q-13 46 -35.5 86.5 t-54.5 71.5t-73 49.5t-91 20.5q-62 2 -112 -18.5t-89 -56.5t-68 -84t-49.5 -101.5t-33.5 -109t-20 -105.5zM796 1578h135l-197 -328h-75z" />
<glyph unicode="&#x3ad;" d="M600 503q-57 0 -121.5 -7t-121 -30t-96 -65.5t-46.5 -113.5q-4 -41 8.5 -72.5t36 -54t55.5 -38t67.5 -24.5t71.5 -13.5t68 -4.5q60 -1 121.5 11t115 39t93 71.5t55.5 107.5h119q-16 -90 -66 -153.5t-120.5 -103t-154.5 -57t-167 -15.5q-47 1 -97.5 8t-98.5 22t-90.5 39 t-74 58t-48.5 79t-13 103q4 60 29 104.5t64.5 76.5t89 53.5t101.5 35.5q-38 14 -71 35t-57 49t-37 63.5t-11 79.5q3 61 26 108.5t60 83t85 59.5t101 38.5t108 20.5t106 5q72 -2 143.5 -20t128.5 -55.5t92.5 -96t35.5 -140.5l-119 1q2 58 -24 97.5t-68 64t-93.5 36 t-100.5 12.5q-53 1 -113 -8t-113 -33t-91 -65t-45 -105q-6 -59 20 -95.5t69 -56t95 -26.5t96 -8l217 -1l-18 -100zM824 1577h135l-197 -328h-75z" />
<glyph unicode="&#x3ae;" d="M374 1082l-35 -197q67 101 163 160t221 57q93 -2 155 -36.5t98 -92t47.5 -133t2.5 -159.5l-187 -1096h-119l187 1096q7 62 0.5 119t-31.5 100.5t-70 70.5t-115 29q-63 1 -117.5 -15.5t-100 -47.5t-82.5 -75t-65 -97l-132 -765h-119l188 1082h111zM817 1578h135l-197 -328 h-75z" />
<glyph unicode="&#x3af;" d="M283 1082h445l-132 -793q-11 -97 29.5 -151.5t140.5 -55.5q40 0 78 8.5t76 19.5l16 -88q-94 -44 -197 -41q-73 1 -125.5 23.5t-85 63t-45 98t-6.5 128.5l111 681h-324zM792 1557h135l-197 -328h-75z" />
<glyph unicode="&#x3b0;" d="M385 1082l-111 -661q-7 -61 -1.5 -121t29.5 -108t69.5 -79t117.5 -33q63 -2 115.5 17t95.5 53t76.5 80.5t58 98.5t41 108t24.5 109q20 134 14 270t-41 267l125 -1q29 -133 34 -266.5t-14 -268.5q-10 -71 -31 -141t-53 -134t-76 -118t-100 -93.5t-124 -61t-148 -19.5 q-97 2 -165 38.5t-108.5 97t-54.5 140.5t-3 169l111 657h119zM717 1646h143l-122 -252h-100zM371 1346q2 34 27 58.5t60 25.5q17 0 32 -6.5t25.5 -17.5t16 -26.5t4.5 -33.5q-1 -17 -8.5 -32t-19.5 -26t-27.5 -18t-32.5 -7q-35 -1 -57 23.5t-20 59.5zM819 1346 q3 34 27.5 58.5t59.5 25.5t58 -24t21 -60q-3 -34 -28.5 -58t-60.5 -25t-57 23.5t-20 59.5z" />
<glyph unicode="&#x3b1;" d="M1039 1082l-139 -819q-2 -21 -4 -50t2.5 -56t19 -46.5t45.5 -20.5q14 -1 27 1.5t27 4.5l8 -94q-22 -9 -43.5 -15t-46.5 -6q-40 0 -69 14t-48 38.5t-28.5 57t-10.5 69.5q-34 -41 -72.5 -75t-83 -58t-94 -37t-104.5 -11q-70 2 -122 26.5t-88.5 64t-59.5 92t-34 110.5 t-12.5 118.5t5.5 117.5l3 22q9 64 27 132t45.5 132t66 121t88.5 99.5t113 66.5t139 22q99 -2 177 -51.5t120 -138.5l64 169h82zM236 505q-6 -42 -7 -90t4.5 -94.5t20 -89.5t40.5 -76t65 -53.5t94 -22.5t103.5 14.5t90 45.5t76 68t62.5 84l80 482q-13 46 -35.5 86.5 t-54.5 71.5t-73 49.5t-91 20.5q-62 2 -112 -18.5t-89 -56.5t-68 -84t-49.5 -101.5t-33.5 -109t-20 -105.5z" />
<glyph unicode="&#x3b2;" d="M728 1477q80 -2 146.5 -30.5t113.5 -78t70 -117.5t16 -149q-5 -58 -26.5 -107t-54.5 -89t-77 -72t-94 -56q58 -22 101 -59t70 -85t38 -104t6 -117q-9 -99 -51 -180t-109 -138.5t-153.5 -88t-184.5 -28.5q-88 2 -172 32.5t-144 98.5l-92 -508h-119l250 1461 q13 85 54.5 161.5t103 133t140.5 89t168 31.5zM619 821q66 1 124.5 19.5t103 54.5t73 88.5t35.5 121.5q6 56 -8.5 104.5t-45.5 85t-76.5 57.5t-102.5 23q-67 2 -124.5 -23.5t-102 -69t-74 -100.5t-39.5 -120l-139 -823q21 -41 52.5 -70.5t70 -49t82 -29.5t87.5 -11 q75 -2 141 21.5t117 67t84 105t41 136.5q7 63 -7.5 118.5t-48 97.5t-84 67t-115.5 28l-148 1l18 101z" />
<glyph unicode="&#x3b3;" d="M1082 1082h131l-646 -1062l-76 -435h-121l78 448l-275 1049h119l212 -826l18 -132l71 142z" />
<glyph unicode="&#x3b4;" d="M375 1280q3 50 21.5 91t48 73t68 55t81.5 37.5t89 21.5t90 7q81 -1 155.5 -23t145.5 -59l-36 -89q-63 31 -130 49.5t-138 18.5q-43 0 -89 -9.5t-85.5 -31t-67.5 -55.5t-34 -83q-6 -48 16 -82t57.5 -58.5t78.5 -41t79 -29.5q90 -32 159.5 -83t115 -119t65.5 -151.5 t11 -179.5l-4 -33q-14 -108 -60.5 -205t-120 -169.5t-170 -113.5t-210.5 -38q-109 3 -189.5 46.5t-131.5 115.5t-72.5 165t-11.5 194l4 33q11 89 47 168.5t92.5 142t131.5 105t164 59.5l8 15q-38 19 -72 44.5t-58.5 57.5t-37.5 70.5t-10 83.5zM225 496q-8 -76 4.5 -149.5 t48 -132t94.5 -95t145 -39.5q91 -2 166 33t131 94.5t92 137.5t48 162l4 31q7 67 -8 137t-51 129t-91.5 100t-128.5 50q-60 7 -115 -7t-102.5 -43.5t-87 -71.5t-69 -91.5t-49 -104t-27.5 -108.5z" />
<glyph unicode="&#x3b5;" d="M600 503q-57 0 -121.5 -7t-121 -30t-96 -65.5t-46.5 -113.5q-4 -41 8.5 -72.5t36 -54t55.5 -38t67.5 -24.5t71.5 -13.5t68 -4.5q60 -1 121.5 11t115 39t93 71.5t55.5 107.5h119q-16 -90 -66 -153.5t-120.5 -103t-154.5 -57t-167 -15.5q-47 1 -97.5 8t-98.5 22t-90.5 39 t-74 58t-48.5 79t-13 103q4 60 29 104.5t64.5 76.5t89 53.5t101.5 35.5q-38 14 -71 35t-57 49t-37 63.5t-11 79.5q3 61 26 108.5t60 83t85 59.5t101 38.5t108 20.5t106 5q72 -2 143.5 -20t128.5 -55.5t92.5 -96t35.5 -140.5l-119 1q2 58 -24 97.5t-68 64t-93.5 36 t-100.5 12.5q-53 1 -113 -8t-113 -33t-91 -65t-45 -105q-6 -59 20 -95.5t69 -56t95 -26.5t96 -8l217 -1l-18 -100z" />
<glyph unicode="&#x3b6;" d="M1182 1456l-11 -83l-519 -499q-57 -53 -116 -109t-108 -118.5t-83 -133.5t-43 -154q-6 -54 11.5 -92.5t49 -66t74 -45t87.5 -29.5l147 -38q39 -10 77.5 -23t68.5 -34t48 -53.5t15 -80.5q-3 -46 -21.5 -88t-47.5 -78.5t-65 -66.5t-73 -52l-64 60q25 19 51 42t47.5 49.5 t36.5 56.5t18 64q3 27 -9.5 45.5t-32 31t-44 20t-45.5 12.5l-131 30q-65 16 -125.5 41.5t-105.5 65.5t-69.5 96t-18.5 132q5 59 24.5 114t49 106.5t67.5 99t79.5 92t84.5 85t84 77.5l442 422h-768l15 102h923z" />
<glyph unicode="&#x3b7;" d="M374 1082l-35 -197q67 101 163 160t221 57q93 -2 155 -36.5t98 -92t47.5 -133t2.5 -159.5l-187 -1096h-119l187 1096q7 62 0.5 119t-31.5 100.5t-70 70.5t-115 29q-63 1 -117.5 -15.5t-100 -47.5t-82.5 -75t-65 -97l-132 -765h-119l188 1082h111z" />
<glyph unicode="&#x3b8;" d="M1005 577q-11 -67 -29.5 -138t-47 -138t-67.5 -126.5t-91 -103.5t-117.5 -68.5t-146.5 -22.5q-78 2 -134 30t-94.5 74t-60.5 106t-31.5 125.5t-8.5 132.5t10 128l49 303q11 67 29.5 138t47 138t68 126.5t91.5 103.5t117.5 69t146.5 23q78 -2 134.5 -30t94.5 -74 t60 -106.5t31 -126t7.5 -133t-9.5 -128.5zM338 779h582l19 121q6 43 9.5 94.5t0 103.5t-16 101.5t-38 88t-66 62.5t-100.5 26q-63 2 -112.5 -18.5t-88 -57t-66.5 -85t-48.5 -102t-33.5 -109t-21 -105.5zM903 677h-582l-19 -120q-6 -43 -9 -94.5t0.5 -104t16 -101.5t38 -88 t66 -63t100.5 -26q63 -2 112.5 19t87.5 57.5t66.5 85t48.5 102.5t33 109t21 105z" />
<glyph unicode="&#x3b9;" d="M283 1082h445l-132 -793q-11 -97 29.5 -151.5t140.5 -55.5q40 0 78 8.5t76 19.5l16 -88q-94 -44 -197 -41q-73 1 -125.5 23.5t-85 63t-45 98t-6.5 128.5l111 681h-324z" />
<glyph unicode="&#x3ba;" d="M480 504l-200 -160l-60 -344h-119l188 1082h120l-104 -589l159 141l514 448h155l-565 -500l416 -582h-142z" />
<glyph unicode="&#x3bb;" d="M87 0h-136l596 1062l-34 152q-7 29 -16 63.5t-25 64t-40.5 49.5t-61.5 22q-14 1 -29 -0.5t-29 -3.5l6 95q17 5 35.5 8.5t36.5 3.5q55 0 95.5 -23.5t68.5 -61t45.5 -84.5t28.5 -93l193 -987q5 -24 12.5 -52.5t20 -54t32.5 -43t51 -19.5q12 -1 24 0.5t23 3.5l-7 -102 q-14 -3 -26.5 -6t-26.5 -3q-51 -2 -88 20t-62.5 57t-41.5 78t-26 85l-126 671l-25 -54z" />
<glyph unicode="&#x3bc;" d="M400 1082l-106 -635q-7 -57 -6 -120t19 -117t59 -90t114 -39q60 -2 116 14.5t102.5 48.5t80.5 78.5t50 105.5l130 754h119l-188 -1082h-109l29 162q-58 -86 -139.5 -135t-187.5 -47q-76 2 -141.5 33.5t-106.5 96.5l-95 -526h-118l261 1498h117z" />
<glyph unicode="&#x3bd;" d="M519 162v-22l10 22l504 920h129l-611 -1082h-97l-273 1082h116z" />
<glyph unicode="&#x3be;" d="M1127 1333q-59 20 -119.5 31t-123.5 12q-61 0 -130 -10t-129.5 -37t-103.5 -74t-51 -121q-5 -49 8 -85t39 -61t62 -41t76 -25.5t81.5 -13t78.5 -4.5h141l-19 -103l-126 1q-91 0 -181.5 -18.5t-165.5 -61.5t-126 -113.5t-62 -173.5q-9 -77 15.5 -134t70 -98t106.5 -68 t126 -44l90 -24q37 -10 75 -22.5t67.5 -32.5t47 -51t14.5 -78q-3 -43 -21 -81.5t-46 -72t-61.5 -61.5t-67.5 -50l-64 62q23 18 47 38.5t44.5 44.5t34.5 51t16 59q2 26 -10.5 43t-32 28.5t-43.5 18t-44 12.5l-62 16q-88 23 -168 57.5t-139.5 87t-91 126.5t-22.5 178 q7 88 43.5 156t93 118t128.5 84.5t151 56.5q-47 16 -88.5 41t-72 59t-47.5 77.5t-14 97.5q4 67 29.5 119t66.5 91t93.5 65.5t111 42.5t119 23t116.5 6q69 0 135 -11.5t130 -33.5z" />
<glyph unicode="&#x3bf;" d="M119 550q9 71 32 140t58 131t82.5 114.5t105.5 90t126 58t146 18.5q74 -2 133.5 -24.5t105 -60.5t77 -90t49.5 -111.5t23.5 -124.5t-1.5 -131l-4 -34q-14 -107 -58.5 -206.5t-115 -176t-166 -121.5t-210.5 -42q-110 3 -188.5 50t-126 122.5t-65.5 171t-7 193.5zM234 516 q-8 -73 1 -149t41 -139t88.5 -104t143.5 -44q92 -3 166 36t128 103t87 145t45 163l4 32q8 73 -1 150t-41 141t-89 106t-144 45q-93 3 -166.5 -37t-127.5 -104.5t-87 -146.5t-44 -163z" />
<glyph unicode="&#x3c0;" d="M1148 979h-170l-119 -711q-3 -28 -2.5 -58.5t9 -56t28 -42.5t55.5 -18q24 -1 48 4.5t47 10.5l15 -92q-65 -29 -136 -28q-62 1 -99.5 26.5t-57.5 66t-24.5 91t0.5 102.5l117 705h-430l-170 -979h-118l170 979h-156l19 103h992z" />
<glyph unicode="&#x3c1;" d="M1029 517q-14 -98 -48.5 -195t-94 -174t-144 -124t-197.5 -45q-95 2 -180 41t-140 119l-100 -555h-119l173 1014h2v11q10 99 52.5 189.5t109.5 159t155.5 108t192.5 36.5q76 -2 132.5 -27.5t97 -67t65.5 -97t37.5 -117t14 -127t-5.5 -127.5zM913 538q5 45 7 96t-4 102 t-21 98t-42.5 83.5t-69 59t-100.5 24.5q-86 2 -150.5 -34t-111 -94.5t-77 -131.5t-48.5 -145h3l-55 -324q36 -91 109 -140.5t172 -51.5q91 -2 158.5 36.5t114 101.5t74 142t38.5 157z" />
<glyph unicode="&#x3c2;" d="M675 1102q86 -2 156.5 -30t120 -78.5t74 -121t19.5 -157.5h-113q5 64 -11.5 116t-51 89t-85.5 58t-115 23q-92 2 -166.5 -35.5t-129 -100t-88 -143t-45.5 -163.5l-6 -41q-9 -83 10 -153.5t60.5 -125t104.5 -92.5t143 -56q46 -11 94 -24t86 -36t61 -60.5t19 -95.5 q-4 -50 -25 -92t-53.5 -76.5t-72.5 -61.5t-82 -47l-48 79q28 15 56 34t50.5 43t38 52.5t20.5 63.5q4 35 -11 56.5t-40 34.5t-55.5 19.5t-56.5 12.5q-101 21 -182.5 65.5t-137 111t-81 153.5t-15.5 194l5 43q13 107 58 206t117 174.5t167.5 120t210.5 41.5z" />
<glyph unicode="&#x3c3;" d="M1186 979l-304 -3q46 -42 77 -92t48.5 -106t21.5 -115.5t-2 -120.5l-3 -34q-9 -69 -32 -135.5t-58.5 -126t-83 -109t-104.5 -85.5t-123.5 -55t-140.5 -17q-111 3 -189 51t-124.5 124.5t-63 172t-6.5 193.5l4 34q14 107 58.5 203t115.5 168t165 114.5t207 42.5l556 -1z M217 517q-8 -72 1 -148.5t40 -139.5t87 -104t143 -44q92 -3 165 36t126 103t85.5 145t44.5 162l4 32q8 72 -2 146t-42 134t-88.5 99t-141.5 41q-89 3 -161 -33.5t-125.5 -97.5t-86.5 -139.5t-44 -158.5z" />
<glyph unicode="&#x3c4;" d="M1099 977h-378l-114 -678q-4 -41 -0.5 -79t18.5 -67.5t44 -48t76 -18.5q33 -1 65 6.5t64 16.5l18 -91q-83 -41 -174 -38q-72 2 -119.5 28.5t-74 71t-34.5 102.5t-1 123l112 672h-357l19 105h855z" />
<glyph unicode="&#x3c5;" d="M385 1082l-111 -661q-7 -61 -1.5 -121t29.5 -108t69.5 -79t117.5 -33q63 -2 115.5 17t95.5 53t76.5 80.5t58 98.5t41 108t24.5 109q20 134 14 270t-41 267l125 -1q29 -133 34 -266.5t-14 -268.5q-10 -71 -31 -141t-53 -134t-76 -118t-100 -93.5t-124 -61t-148 -19.5 q-97 2 -165 38.5t-108.5 97t-54.5 140.5t-3 169l111 657h119z" />
<glyph unicode="&#x3c6;" d="M443 -16q-69 11 -120.5 39.5t-88.5 70.5t-60.5 94t-35 110t-12 119.5t7.5 122.5q10 81 34.5 159t63 148.5t92.5 131t125 105.5l53 -90q-54 -41 -96 -93t-72.5 -111t-51 -123t-30.5 -130t-8 -138t23.5 -135.5t66 -112t120.5 -66.5l132 780q6 44 23 83.5t44.5 69.5t65 48 t84.5 18q64 0 110 -26.5t78 -70t51 -99.5t28 -115.5t9 -117t-6 -103.5q-14 -108 -53 -206t-103.5 -174.5t-154 -127t-202.5 -62.5l-83 -460h-117zM576 81q84 15 150 60t113.5 109.5t76 142.5t39.5 158q3 27 5 70t-0.5 92t-11.5 98t-28 87.5t-49 61.5t-75 20 q-22 -2 -37.5 -12.5t-26 -26t-17 -34.5t-9.5 -38z" />
<glyph unicode="&#x3c7;" d="M608 642l394 440h151l-488 -536l326 -546h-132l-269 459l-414 -459h-149l507 556l-314 526h133z" />
<glyph unicode="&#x3c8;" d="M739 1082l-172 -1001q95 15 164.5 62.5t117.5 116.5t77 152.5t42 170.5q19 125 15 251t-34 249l121 -1q32 -122 33 -247.5t-16 -250.5q-17 -115 -56 -219t-104.5 -185.5t-158 -133.5t-216.5 -63l-78 -426h-117l78 429q-74 12 -127.5 44t-90.5 78.5t-58.5 104.5 t-30.5 121.5t-8 129.5t10 129l83 489h117l-83 -492q-6 -46 -9 -97.5t0.5 -103t15.5 -100.5t36.5 -89.5t62.5 -70.5t93 -43l176 996h117z" />
<glyph unicode="&#x3c9;" d="M387 1081q-32 -66 -63 -134t-57 -137t-46.5 -140.5t-31.5 -144.5q-4 -25 -9 -67t-7.5 -90.5t0 -99t15 -92t37 -68.5t65.5 -29q45 -2 78 18t57.5 54t41 78t27.5 89t17.5 87t11.5 73l49 292h119l-47 -293q-3 -25 -7.5 -63.5t-6 -82.5t2.5 -88.5t17.5 -80.5t39 -59t66.5 -24 q46 -1 79.5 23.5t58 64.5t41.5 90.5t27.5 101.5t17 97t11.5 77q20 138 18 275.5t-29 274.5l119 -1q17 -67 24.5 -135t7.5 -137t-6 -138t-16 -137q-7 -48 -18 -108.5t-29 -123t-44 -121.5t-63.5 -104.5t-87.5 -73t-115 -25.5q-50 1 -86.5 20.5t-62 52t-40 73.5t-19.5 86 q-19 -44 -43 -86t-56.5 -75t-73.5 -53t-95 -18q-62 2 -103.5 31.5t-66 76.5t-35.5 106t-13 119t2 116.5t10 98.5q21 146 67.5 286.5t122.5 267.5h127z" />
<glyph unicode="&#x3ca;" d="M283 1082h445l-132 -793q-11 -97 29.5 -151.5t140.5 -55.5q40 0 78 8.5t76 19.5l16 -88q-94 -44 -197 -41q-73 1 -125.5 23.5t-85 63t-45 98t-6.5 128.5l111 681h-324zM417 1387q1 16 8.5 31t19 26t26 18t31.5 7q34 0 57 -24t20 -58q-2 -33 -27 -56t-58 -24 q-34 0 -56.5 23t-20.5 57zM842 1386q1 16 8 31t18.5 26t26.5 18t32 7q34 0 56.5 -24t20.5 -58q-2 -33 -27.5 -56t-57.5 -24q-34 0 -56.5 23t-20.5 57z" />
<glyph unicode="&#x3cb;" d="M385 1082l-111 -661q-7 -61 -1.5 -121t29.5 -108t69.5 -79t117.5 -33q63 -2 115.5 17t95.5 53t76.5 80.5t58 98.5t41 108t24.5 109q20 134 14 270t-41 267l125 -1q29 -133 34 -266.5t-14 -268.5q-10 -71 -31 -141t-53 -134t-76 -118t-100 -93.5t-124 -61t-148 -19.5 q-97 2 -165 38.5t-108.5 97t-54.5 140.5t-3 169l111 657h119zM398 1387q1 16 8.5 31t19 26t26 18t31.5 7q34 0 57 -24t20 -58q-2 -33 -27 -56t-58 -24q-34 0 -56.5 23t-20.5 57zM823 1386q1 16 8 31t18.5 26t26.5 18t32 7q34 0 56.5 -24t20.5 -58q-2 -33 -27.5 -56 t-57.5 -24q-34 0 -56.5 23t-20.5 57z" />
<glyph unicode="&#x3cc;" d="M119 550q9 71 32 140t58 131t82.5 114.5t105.5 90t126 58t146 18.5q74 -2 133.5 -24.5t105 -60.5t77 -90t49.5 -111.5t23.5 -124.5t-1.5 -131l-4 -34q-14 -107 -58.5 -206.5t-115 -176t-166 -121.5t-210.5 -42q-110 3 -188.5 50t-126 122.5t-65.5 171t-7 193.5zM234 516 q-8 -73 1 -149t41 -139t88.5 -104t143.5 -44q92 -3 166 36t128 103t87 145t45 163l4 32q8 73 -1 150t-41 141t-89 106t-144 45q-93 3 -166.5 -37t-127.5 -104.5t-87 -146.5t-44 -163zM812 1578h135l-197 -328h-75z" />
<glyph unicode="&#x3cd;" d="M385 1082l-111 -661q-7 -61 -1.5 -121t29.5 -108t69.5 -79t117.5 -33q63 -2 115.5 17t95.5 53t76.5 80.5t58 98.5t41 108t24.5 109q20 134 14 270t-41 267l125 -1q29 -133 34 -266.5t-14 -268.5q-10 -71 -31 -141t-53 -134t-76 -118t-100 -93.5t-124 -61t-148 -19.5 q-97 2 -165 38.5t-108.5 97t-54.5 140.5t-3 169l111 657h119zM773 1557h135l-197 -328h-75z" />
<glyph unicode="&#x3ce;" d="M387 1081q-32 -66 -63 -134t-57 -137t-46.5 -140.5t-31.5 -144.5q-4 -25 -9 -67t-7.5 -90.5t0 -99t15 -92t37 -68.5t65.5 -29q45 -2 78 18t57.5 54t41 78t27.5 89t17.5 87t11.5 73l49 292h119l-47 -293q-3 -25 -7.5 -63.5t-6 -82.5t2.5 -88.5t17.5 -80.5t39 -59t66.5 -24 q46 -1 79.5 23.5t58 64.5t41.5 90.5t27.5 101.5t17 97t11.5 77q20 138 18 275.5t-29 274.5l119 -1q17 -67 24.5 -135t7.5 -137t-6 -138t-16 -137q-7 -48 -18 -108.5t-29 -123t-44 -121.5t-63.5 -104.5t-87.5 -73t-115 -25.5q-50 1 -86.5 20.5t-62 52t-40 73.5t-19.5 86 q-19 -44 -43 -86t-56.5 -75t-73.5 -53t-95 -18q-62 2 -103.5 31.5t-66 76.5t-35.5 106t-13 119t2 116.5t10 98.5q21 146 67.5 286.5t122.5 267.5h127zM819 1557h135l-197 -328h-75z" />
<glyph unicode="&#x3d1;" d="M1158 674q-83 -28 -171 -34l-35 -212q-15 -95 -52 -178t-96.5 -144t-141 -95t-184.5 -31q-95 3 -164.5 40t-113 98.5t-61 141t-7.5 168.5l54 329l120 2l-55 -332q-8 -65 0.5 -125.5t36.5 -108t76.5 -77.5t121.5 -32q79 -3 138.5 23.5t102.5 74t69 111.5t37 135l38 216 q-98 14 -176.5 54.5t-132.5 103.5t-80 146.5t-18 184.5l2 20q7 67 33.5 128.5t69.5 108t101 73.5t130 26q81 -2 135 -38.5t84.5 -93t39.5 -127t1 -139.5l-56 -347q39 4 77.5 11.5t76.5 18.5v-100zM582 1132q-12 -158 67 -257.5t234 -126.5l59 344q5 44 3.5 95t-16.5 94.5 t-48 72.5t-91 30q-48 1 -84.5 -19.5t-62 -53.5t-40 -74.5t-19.5 -83.5z" />
<glyph unicode="&#x3d2;" d="M921 1240q22 42 49 84t60.5 75t76 53t95.5 19q29 -1 54 -8t50 -20l-29 -94q-15 7 -29 11.5t-31 5.5q-33 1 -59.5 -12.5t-48.5 -35t-39.5 -47.5t-31.5 -51l-378 -627l-103 -593h-118l106 609l-165 610q-7 23 -17 47.5t-25 45t-36 33.5t-49 13q-17 0 -31.5 -4t-29.5 -9 l-14 97q23 11 47 17t50 6q48 0 83 -20.5t60.5 -53t42.5 -73t29 -79.5l112 -432l14 -104l57 114z" />
<glyph unicode="&#x3d6;" d="M1219 979h-130q11 -128 8 -253.5t-21 -253.5q-7 -47 -17.5 -102t-28 -110t-43 -106.5t-61 -90.5t-82 -62.5t-107.5 -21.5q-50 1 -87 20.5t-63 51.5t-41 73.5t-19 86.5q-19 -44 -43 -86t-56.5 -75t-73.5 -53t-95 -18q-58 2 -97.5 27t-64.5 65.5t-37.5 91t-16 104t-1 104.5 t8.5 92q18 136 59 266.5t107 250.5l-120 -1l19 103h1122zM957 470q18 128 17.5 254.5t-12.5 254.5l-616 1q-63 -122 -109.5 -252t-66.5 -267q-3 -24 -7 -61t-5 -78.5t3 -84t16.5 -77t36 -56.5t61.5 -24q44 -2 77.5 18t57.5 54t40.5 77.5t27.5 88.5t17.5 87t11.5 73l46 269 h117l-43 -270q-3 -25 -7.5 -64t-5.5 -83t3.5 -88.5t18 -80.5t39 -58.5t67.5 -23.5q42 0 73 20.5t53.5 54t37.5 76.5t25 86.5t16 84t10 69.5z" />
<glyph unicode="&#x400;" d="M952 698h-623l-103 -594h718l-18 -104h-836l252 1456h833l-19 -105h-714l-95 -549h623zM782 1565h-95l-170 266h134z" />
<glyph unicode="&#x401;" d="M952 698h-623l-103 -594h718l-18 -104h-836l252 1456h833l-19 -105h-714l-95 -549h623zM451 1729q1 16 8.5 31t19 26t26 18t31.5 7q34 0 57 -24t20 -58q-2 -33 -27 -56t-58 -24q-34 0 -56.5 23t-20.5 57zM876 1728q1 16 8 31t18.5 26t26.5 18t32 7q34 0 56.5 -24 t20.5 -58q-2 -33 -27.5 -56t-57.5 -24q-34 0 -56.5 23t-20.5 57z" />
<glyph unicode="&#x402;" d="M1111 1354h-479l-97 -532q48 20 97.5 32.5t101.5 11.5q97 -2 165 -40t108.5 -101t55.5 -144.5t7 -168.5q-9 -93 -43.5 -169.5t-90.5 -132.5t-132.5 -88.5t-170.5 -36.5l7 99q70 3 124.5 30t93.5 71.5t62 103t30 124.5q7 61 0.5 122.5t-32 110.5t-71.5 80t-119 33 q-53 1 -104 -13.5t-101 -30.5l-126 -715h-116l235 1354h-340l18 102h935z" />
<glyph unicode="&#x403;" d="M1164 1354h-731l-235 -1354h-119l253 1456h850zM918 1829h151l-266 -265h-106z" />
<glyph unicode="&#x404;" d="M1054 442q-21 -99 -67 -185t-113.5 -148.5t-156 -97t-195.5 -31.5q-81 2 -143.5 29.5t-107.5 73.5t-74.5 106.5t-44.5 128t-17 139t8 139.5l42 264q12 74 35.5 149t58.5 144t82.5 128.5t107 103.5t131.5 68.5t157 22.5q102 -2 178 -39t125.5 -99.5t73 -147t22.5 -180.5 h-117q-1 72 -16 137t-49 115.5t-88.5 81t-134.5 32.5q-69 1 -126 -20.5t-103.5 -59t-82.5 -88.5t-62.5 -108.5t-45 -118.5t-28.5 -118l-14 -75h559l-18 -102h-555l-14 -91q-7 -51 -8.5 -108t6.5 -113.5t26.5 -108t50.5 -92t79 -65.5t113 -27q87 -3 153.5 24t116.5 76.5 t84.5 116.5t57.5 143z" />
<glyph unicode="&#x405;" d="M921 366q5 47 -5 85t-30.5 68.5t-50 55t-64 44t-72 35.5t-74.5 30q-70 26 -139 60.5t-123 83t-85.5 113.5t-25.5 151q4 61 26.5 114t58.5 96t82.5 76t99.5 55.5t110.5 33t114.5 9.5q90 -2 165.5 -35t128.5 -89.5t80.5 -133t23.5 -166.5h-119q-1 66 -19.5 123t-54 100 t-88.5 68.5t-122 27.5q-63 2 -125.5 -16t-113.5 -53.5t-85.5 -88t-40.5 -119.5t19 -115.5t68 -83.5t97.5 -59t107.5 -43q73 -26 144 -62.5t125 -87.5t85 -119t24 -156q-5 -64 -27.5 -118t-59 -97.5t-84.5 -76t-102.5 -54.5t-113.5 -32.5t-118 -9.5q-93 1 -174.5 31.5 t-141 86t-92 133.5t-28.5 174h118q1 -73 24.5 -131.5t65.5 -100t101 -65t132 -24.5q66 -2 130.5 15.5t117 53t87.5 89t42 124.5z" />
<glyph unicode="&#x406;" d="M335 1456h820l-19 -108h-354l-215 -1242h354l-19 -106h-820l19 106h343l215 1242h-344z" />
<glyph unicode="&#x407;" d="M335 1456h820l-19 -108h-354l-215 -1242h354l-19 -106h-820l19 106h343l215 1242h-344zM477 1729q1 16 8.5 31t19 26t26 18t31.5 7q34 0 57 -24t20 -58q-2 -33 -27 -56t-58 -24q-34 0 -56.5 23t-20.5 57zM902 1728q1 16 8 31t18.5 26t26.5 18t32 7q34 0 56.5 -24 t20.5 -58q-2 -33 -27.5 -56t-57.5 -24q-34 0 -56.5 23t-20.5 57z" />
<glyph unicode="&#x408;" d="M1022 1456h122l-174 -1014q-15 -96 -59.5 -181t-112 -148t-155 -99t-188.5 -34q-94 1 -166 35t-120 92t-72 136t-22 168l120 -1q-4 -66 11 -124.5t48.5 -103t85.5 -71t123 -27.5q77 -2 142 27t115 79t83 115.5t45 136.5z" />
<glyph unicode="&#x409;" d="M854 1456l-106 -610l130 -2q80 -4 129 -45t75 -101.5t32 -132t0 -136.5q-8 -77 -33 -154t-70 -138.5t-110 -99.5t-153 -37h-261l235 1354h-249l-106 -557q-10 -53 -22.5 -132.5t-32 -169t-47.5 -178.5t-69.5 -160t-98.5 -115t-134 -42h-34l13 99l23 -1q40 1 72.5 25.5 t58.5 65.5t46 94.5t35 111.5t26.5 118t19.5 114t14.5 98.5t11.5 71.5l129 659h476zM731 745l-112 -644l133 -2q64 1 107.5 33.5t72 81t43.5 106.5t21 111q3 25 5 57t0.5 66t-8.5 66.5t-21 58.5t-37.5 43.5t-58.5 20.5z" />
<glyph unicode="&#x40a;" d="M278 785h348l117 671h115l-111 -632l81 -2q84 -3 139 -39t86 -92t40 -127t1 -144q-9 -83 -37 -159.5t-77 -134.5t-118.5 -92.5t-160.5 -33.5h-211l119 684h-348l-119 -684h-115l253 1456h115zM730 722l-107 -617l83 -1q69 1 117 28.5t80 71.5t49.5 101t24.5 117 q5 47 4.5 98t-15.5 94t-48 72.5t-92 33.5z" />
<glyph unicode="&#x40b;" d="M1098 1354h-449l-100 -548q48 13 96.5 22.5t99.5 8.5q93 -2 157.5 -36t103 -92t51 -134.5t2.5 -161.5l-69 -413h-117l68 414q7 60 2.5 116.5t-27 101t-65.5 72t-113 30.5q-51 2 -100.5 -7t-99.5 -21l-125 -706h-116l235 1354h-338l18 102h904z" />
<glyph unicode="&#x40c;" d="M518 719l-220 -202l-89 -517h-121l254 1456h120l-136 -771l227 222l552 549h157l-655 -653l432 -803h-135zM895 1775h151l-266 -265h-106z" />
<glyph unicode="&#x40d;" d="M1055 1456h121l-253 -1456h-118l212 1209l-836 -1209h-121l253 1456h118l-212 -1207zM811 1559h-95l-170 266h134z" />
<glyph unicode="&#x40e;" d="M588 597l18 -85l578 944h146l-760 -1209q-34 -56 -73.5 -105t-87 -86t-105 -58.5t-127.5 -21.5q-37 1 -72.5 7.5t-70.5 16.5l28 95q27 -7 54.5 -12.5t56.5 -6.5q49 0 90 16.5t75.5 44t63 63.5t52.5 74l74 115l-351 1067l126 1zM1121 1838q-9 -60 -34.5 -108t-65 -82 t-91 -51.5t-112.5 -16.5q-58 1 -105.5 19.5t-81 52.5t-51 81t-16.5 105l100 -1q-2 -77 37 -123t119 -48q42 -1 75 11t58.5 34.5t43 54.5t27.5 70z" />
<glyph unicode="&#x40f;" d="M316 1456h118l-236 -1355h622l235 1355h118l-253 -1456h-365l-62 -353h-117l61 353h-374z" />
<glyph unicode="&#x410;" d="M845 406h-534l-196 -406h-125l713 1456h107l204 -1456h-115zM362 513h469l-101 761z" />
<glyph unicode="&#x411;" d="M1151 1354h-730l-93 -532l281 -1q89 -3 162.5 -31.5t124.5 -79.5t76 -124t17 -165q-9 -101 -53 -180t-112.5 -133t-156.5 -81.5t-185 -26.5h-416l253 1456h850zM311 720l-108 -619l283 -2q74 0 140 22.5t117.5 64t85 101.5t41.5 136q7 66 -9 119.5t-51 91.5t-87 60 t-116 25z" />
<glyph unicode="&#x412;" d="M83 0l253 1456l379 -1q82 -3 156.5 -27.5t129.5 -71t84.5 -115t21.5 -158.5q-5 -64 -30 -115t-63.5 -90.5t-89 -69t-106.5 -51.5q56 -18 99.5 -51t72 -78t41 -98.5t8.5 -111.5q-7 -98 -51.5 -175.5t-113.5 -131.5t-157 -82.5t-181 -28.5h-453zM324 700l-104 -596l323 -2 q70 1 134.5 23t116 62.5t85 98.5t41.5 130q6 61 -10 111.5t-49.5 87.5t-82.5 59t-109 25zM341 803l278 -2q65 0 128 18.5t114 54.5t85 89t42 123q7 65 -13 113.5t-58 81t-90.5 50t-111.5 19.5l-278 1z" />
<glyph unicode="&#x413;" d="M1164 1354h-731l-235 -1354h-119l253 1456h850z" />
<glyph unicode="&#x414;" d="M888 101h105l-88 -454h-108l62 353h-753l-62 -353h-104l64 454l60 -1q62 39 109 97.5t81.5 129.5t59 150t43 158.5t32 155.5t27.5 141l115 524h592zM535 932q-23 -104 -46.5 -216.5t-58 -222.5t-84 -211t-123.5 -183l548 2l217 1253h-362z" />
<glyph unicode="&#x415;" d="M952 698h-623l-103 -594h718l-18 -104h-836l252 1456h833l-19 -105h-714l-95 -549h623z" />
<glyph unicode="&#x416;" d="M745 686h-76l-119 -686h-115l120 686h-71l-401 -686h-149l448 737l-159 719h129l133 -668h86l117 668h115l-116 -668h77l365 668h141l-417 -733l188 -723h-133z" />
<glyph unicode="&#x417;" d="M618 792q72 0 143 15.5t129.5 50.5t98 90.5t47.5 136.5q8 73 -15.5 127.5t-68.5 90t-105.5 53.5t-126.5 19q-72 1 -138.5 -18.5t-120.5 -58t-92.5 -94.5t-54.5 -128l-117 -1q15 97 64.5 172.5t121.5 126.5t160.5 77t182.5 25q89 -1 170.5 -26t142 -73.5t93.5 -122 t24 -172.5q-6 -68 -34.5 -121.5t-72 -95.5t-98.5 -72.5t-114 -51.5q115 -40 173.5 -127.5t48.5 -209.5q-9 -109 -62 -189.5t-133.5 -134t-178.5 -78.5t-197 -23q-94 2 -175 31.5t-139 84.5t-89 133t-24 176h118q-6 -73 16 -132t64.5 -101t102.5 -65.5t131 -25.5 q76 -2 152 16.5t138.5 58t105 100.5t51.5 144q9 79 -15 134t-70.5 89.5t-109.5 50t-132 17.5l-187 1l18 103z" />
<glyph unicode="&#x418;" d="M1055 1456h121l-253 -1456h-118l212 1209l-836 -1209h-121l253 1456h118l-212 -1207z" />
<glyph unicode="&#x419;" d="M1055 1456h121l-253 -1456h-118l212 1209l-836 -1209h-121l253 1456h118l-212 -1207zM1073 1832q-9 -60 -34.5 -108t-65 -82t-91 -51.5t-112.5 -16.5q-58 1 -105.5 19.5t-81 52.5t-51 81t-16.5 105l100 -1q-2 -77 37 -123t119 -48q42 -1 75 11t58.5 34.5t43 54.5t27.5 70 z" />
<glyph unicode="&#x41a;" d="M518 685h-183l-119 -685h-118l253 1456h118l-117 -670h173l607 670h147l-656 -722l435 -734h-137z" />
<glyph unicode="&#x41b;" d="M1180 1456l-252 -1456h-118l235 1354h-486l-119 -602q-12 -59 -27 -137.5t-38 -162.5t-55 -165.5t-78.5 -145.5t-108.5 -103t-143 -38h-44l12 99l34 -1q60 1 105.5 38.5t79 96t57.5 131.5t40.5 145.5t27.5 136.5t19 106l141 704h718z" />
<glyph unicode="&#x41c;" d="M459 1456l140 -820l444 820h158l-253 -1456h-117l113 648l119 632l-455 -842h-78l-144 843l-102 -639l-111 -642h-117l253 1456h150z" />
<glyph unicode="&#x41d;" d="M934 0h-112l121 698h-660l-122 -698h-112l253 1456h112l-114 -654h661l114 654h112z" />
<glyph unicode="&#x41e;" d="M1078 632q-13 -74 -36 -152t-58 -151t-81.5 -137.5t-106.5 -112.5t-133.5 -75t-160.5 -24q-83 2 -146 32.5t-108 80t-73.5 114.5t-42.5 136.5t-15 145.5t9 142l31 192q12 74 35.5 151.5t58.5 151t82 138t107 112.5t133.5 75t160.5 25q84 -2 147 -32.5t108 -80.5t73 -115 t41.5 -137t14 -146t-8.5 -142zM992 827q7 51 9 110.5t-5 119t-24.5 115t-49.5 98.5t-80 70t-116 29q-71 2 -128.5 -21.5t-104.5 -64.5t-83 -96t-62.5 -116.5t-44.5 -124.5t-28 -121l-32 -195q-7 -51 -9 -110.5t5 -119t25 -115.5t50 -99t80 -70t116 -29q71 -3 129 20.5 t105 64.5t82.5 96t62 116t44 125t27.5 122z" />
<glyph unicode="&#x41f;" d="M920 0h-118l236 1354h-622l-235 -1354h-118l253 1456h857z" />
<glyph unicode="&#x420;" d="M328 600l-105 -600h-119l253 1456l438 -1q89 -3 162.5 -36t124.5 -88.5t76 -132t17 -166.5q-9 -101 -54 -181t-115 -136t-158.5 -86t-185.5 -30zM345 701l321 -2q74 0 141 23.5t119.5 67t86.5 104.5t43 137q7 66 -8 123t-49.5 100t-87 69.5t-119.5 29.5l-334 1z" />
<glyph unicode="&#x421;" d="M1032 443q-22 -96 -67.5 -181.5t-112 -149t-153.5 -99.5t-192 -33q-84 3 -147.5 32t-109 77.5t-74.5 112t-43.5 134t-16 144t8.5 142.5l34 211q13 75 36.5 152.5t59.5 149.5t83.5 135t108 109.5t134 72.5t160.5 24q100 -2 174 -40.5t123.5 -102t74 -147t25.5 -176.5h-117 q-2 68 -18 133t-49.5 116t-87.5 82.5t-131 33.5q-71 2 -129.5 -21t-106 -63.5t-83.5 -94.5t-63 -114.5t-45 -124t-28 -122.5l-36 -214q-8 -52 -9.5 -111.5t5.5 -118.5t25 -114t50.5 -97.5t81 -69.5t116.5 -29q84 -3 149.5 25.5t115.5 78.5t85.5 117t58.5 139z" />
<glyph unicode="&#x422;" d="M1236 1351h-449l-235 -1351h-116l235 1351h-451l19 105h1016z" />
<glyph unicode="&#x423;" d="M588 597l18 -85l578 944h146l-760 -1209q-34 -56 -73.5 -105t-87 -86t-105 -58.5t-127.5 -21.5q-37 1 -72.5 7.5t-70.5 16.5l28 95q27 -7 54.5 -12.5t56.5 -6.5q49 0 90 16.5t75.5 44t63 63.5t52.5 74l74 115l-351 1067l126 1z" />
<glyph unicode="&#x424;" d="M765 1257q100 -10 175 -56t122.5 -117t67 -160t9.5 -184q-12 -110 -57.5 -205.5t-118 -167.5t-168 -115.5t-206.5 -49.5l-39 -202h-117l39 203q-101 10 -176 56.5t-122 117.5t-66.5 160.5t-8.5 184.5q12 110 57.5 205.5t117.5 167t167.5 114.5t206.5 49l38 198h117z M1021 740q9 74 -1.5 144.5t-42.5 127.5t-87 95.5t-136 48.5l-151 -855q89 7 161.5 44t126 96.5t86.5 136t44 162.5zM217 722q-9 -74 1 -145t41.5 -128.5t87 -96t136.5 -48.5l152 854q-89 -7 -161.5 -44t-126 -95.5t-87 -134.5t-43.5 -162z" />
<glyph unicode="&#x425;" d="M643 836l455 620h146l-543 -724l322 -732h-132l-269 640l-471 -640h-146l560 744l-312 712h133z" />
<glyph unicode="&#x426;" d="M336 1456h117l-235 -1355h614v2h2l238 1353h117l-235 -1353h126l-88 -454h-109l62 351h-862z" />
<glyph unicode="&#x427;" d="M1155 1456l-253 -1456h-117l120 662q-76 -25 -152.5 -41t-156.5 -14q-99 1 -166 37.5t-105 97.5t-50.5 141.5t-1.5 169.5l67 403h118l-66 -404q-7 -64 -3 -124.5t26.5 -108t67.5 -77.5t120 -32q81 -3 158.5 14t153.5 39l123 693h117z" />
<glyph unicode="&#x428;" d="M395 1456l-235 -1355h292l236 1355h115l-235 -1355h293l235 1355h116l-253 -1456h-933l252 1456h117z" />
<glyph unicode="&#x429;" d="M397 1456l-235 -1355h292l236 1355h115l-235 -1355h266v1h27l235 1354h116l-236 -1354h81l-87 -453h-106l61 351h-899l252 1456h117z" />
<glyph unicode="&#x42a;" d="M192 1456h472l-110 -634l194 -1q87 -3 153 -34.5t109.5 -84.5t63 -125t11.5 -157q-9 -95 -47 -172.5t-99 -133t-142 -85.5t-176 -29h-326l235 1354h-356zM537 720l-108 -619l195 -2q72 1 131.5 25.5t104 67.5t71.5 102t35 129q6 58 -4 110.5t-37 93t-72 65t-108 27.5z " />
<glyph unicode="&#x42b;" d="M316 822l139 -2q85 -4 145.5 -37.5t98 -88t51.5 -125.5t6 -150q-9 -89 -42 -165.5t-87.5 -133t-129.5 -89t-168 -31.5h-271l253 1456h116zM299 720l-107 -619l141 -2q70 0 123.5 26.5t91 71t59.5 102.5t29 123q6 52 0.5 103.5t-26 93t-59 69t-98.5 30.5zM942 0h-116 l253 1456h116z" />
<glyph unicode="&#x42c;" d="M353 822l281 -1q89 -3 162.5 -31.5t124.5 -79.5t76 -124t17 -165q-9 -101 -53 -180t-112.5 -133t-156.5 -81.5t-185 -26.5h-414l252 1456h119zM336 720l-108 -619l283 -2q74 0 140 22.5t117.5 64t85 101.5t41.5 136q7 66 -9 119.5t-51 91.5t-87 60t-116 25z" />
<glyph unicode="&#x42d;" d="M216 455q-2 -71 10.5 -137.5t44.5 -118.5t86 -84t135 -34q68 -2 125 19t104 58t83.5 87.5t63.5 108t45 118t28 118.5l15 91h-511l18 101h510l13 85q7 51 7.5 108t-7.5 112.5t-27.5 106.5t-51.5 90.5t-79.5 64t-112.5 26.5q-86 3 -152.5 -27t-116 -81.5t-83 -120.5 t-52.5 -144l-114 -1q18 99 62 187t111 153t155.5 101.5t195.5 33.5q81 -2 143.5 -29t108 -72.5t75.5 -105t45.5 -126.5t17.5 -138.5t-7 -139.5l-44 -274q-12 -74 -35.5 -148.5t-59 -143t-83 -128t-107.5 -102.5t-132 -67t-157 -22q-102 2 -177 41t-123.5 104t-70 150 t-15.5 180h116z" />
<glyph unicode="&#x42e;" d="M1084 569q-10 -58 -25.5 -125.5t-39.5 -133.5t-58 -127t-80 -107t-105 -72.5t-134 -23.5q-71 2 -119.5 32.5t-80 78.5t-47 109.5t-20.5 126t-1.5 127.5t11.5 114l19 118h-146l-120 -686h-116l253 1456h116l-117 -669h147l17 100q9 57 24 123.5t38 133t55.5 127.5 t77.5 107.5t103 73t132 24.5q72 -2 122 -32t82.5 -78t49 -109t22.5 -126t2.5 -128.5t-10.5 -115.5zM1017 890q5 35 10 83.5t5.5 101.5t-6 105t-26 94t-53.5 68.5t-88 28.5q-56 2 -98.5 -21.5t-74 -63.5t-53.5 -91.5t-37 -106t-24.5 -106.5t-15.5 -93l-53 -322 q-5 -33 -10.5 -81.5t-6.5 -101.5t5 -105.5t24 -95t50.5 -70t85.5 -29.5q58 -3 102 20.5t76.5 63t55.5 91.5t38.5 106.5t25 107.5t16.5 95z" />
<glyph unicode="&#x42f;" d="M781 0l107 613h-378l-411 -613h-134l447 649q-114 51 -169 148t-44 221q9 108 55.5 189.5t119 137t165.5 84t195 28.5l419 -1l-253 -1456h-119zM316 1020q-7 -65 8 -119.5t49 -94.5t85.5 -63t116.5 -26l330 -1l111 638l-286 2q-78 0 -149 -22t-127 -64t-92.5 -105 t-45.5 -145z" />
<glyph unicode="&#x430;" d="M810 0q-5 39 -3.5 77.5t7.5 78.5q-78 -82 -179 -130t-217 -46q-65 2 -122.5 23t-100 59.5t-65.5 93t-19 123.5t30 122t67 92t94.5 65.5t112.5 42t120 22.5t119 7l233 -1l18 124q6 59 -10 104.5t-49 77t-80 48.5t-103 19q-55 1 -107 -12t-95 -40.5t-75 -69t-46 -96.5h-117 q13 80 57 140t106 100t137 59.5t151 18.5q78 -2 145.5 -26t115.5 -69t72.5 -109.5t16.5 -147.5l-87 -524q-9 -55 -7 -107t4 -106l-1 -13h-123zM436 86q61 -2 118 12t107.5 42t93.5 68.5t76 90.5l41 238l-203 1q-43 0 -90.5 -3.5t-94.5 -13.5t-91 -28t-78.5 -45.5t-57 -66.5 t-27.5 -92q-5 -48 10.5 -85t44 -63t68 -40t83.5 -15z" />
<glyph unicode="&#x431;" d="M663 1010q101 -2 176 -42.5t123.5 -106.5t69.5 -152t13 -180l-3 -34q-12 -105 -55 -199.5t-112.5 -165.5t-162 -112t-203.5 -38q-106 2 -185 45.5t-129.5 115t-71.5 163t-10 189.5l4 33l1 4l9 69q12 85 34 171.5t56 167.5t80.5 153.5t108 130.5t138.5 97.5t171 55.5 q46 7 93.5 16.5t89 27.5t73 49.5t45.5 83.5h103q-12 -79 -47.5 -129t-87 -80.5t-115.5 -46t-134 -26.5q-94 -15 -166 -55.5t-128 -100t-97.5 -134t-73.5 -157.5q77 85 176 137t217 50zM640 909q-83 2 -153 -28.5t-123 -84t-86.5 -124t-43.5 -148.5l-3 -33q-7 -73 5 -145.5 t46 -130.5t91.5 -95t141.5 -39q87 -3 158 32t123.5 93.5t85 134t42.5 155.5l3 32q7 72 -7.5 139.5t-50.5 120.5t-93 86t-136 35z" />
<glyph unicode="&#x432;" d="M74 0l188 1082l390 -1q66 -2 133 -16t119.5 -46t83.5 -85t25 -133q-4 -51 -23 -90.5t-49.5 -69.5t-70.5 -51.5t-85 -36.5q89 -22 138.5 -87.5t44.5 -157.5q-5 -85 -43 -144t-97.5 -96t-132.5 -53t-148 -15h-473zM280 498l-69 -398l339 -1q52 0 103 11t93 36t70.5 65 t34.5 98q5 51 -12 86t-48.5 57.5t-73 33t-84.5 11.5zM297 598l284 -1q51 0 104 9t97 31.5t75 61t37 98.5q6 56 -15 91t-57 55t-81.5 27.5t-90.5 8.5l-286 1z" />
<glyph unicode="&#x433;" d="M1088 979h-710l-170 -979h-122l188 1082h833z" />
<glyph unicode="&#x434;" d="M88 99q69 51 116 120t79.5 147.5t53.5 161.5t38 163l84 391h624l-171 -981h109l-82 -419h-109l56 318h-786l-56 -318h-105l65 419zM495 691q-17 -79 -36.5 -160t-48.5 -158t-70.5 -147t-102.5 -127l556 2l151 869h-389z" />
<glyph unicode="&#x435;" d="M539 -20q-109 3 -190 48t-132.5 118t-73.5 167t-12 194l5 44q9 69 32.5 137t59.5 130t84 115t106.5 91t126.5 59t143 19q103 -3 176 -46t117.5 -112t61 -157t6.5 -181l-9 -73h-786l-5 -24q-11 -76 2.5 -151t51.5 -135.5t99.5 -99t145.5 -41.5q99 -4 181.5 36t151.5 108 l71 -57q-78 -94 -185 -142.5t-228 -46.5zM682 1000q-81 3 -147 -28t-117.5 -82.5t-88.5 -118.5t-60 -136l663 -1l3 15q9 64 -3 126t-44.5 111.5t-84.5 80.5t-121 33z" />
<glyph unicode="&#x436;" d="M714 500h-86l-87 -500h-116l88 500h-77l-381 -500h-148l439 563l-202 519h127l171 -475h88l83 475h117l-83 -475h81l338 475h143l-395 -533l239 -549h-131z" />
<glyph unicode="&#x437;" d="M612 603q52 0 110 7.5t109 29t86.5 61t42.5 102.5q6 58 -19.5 95.5t-68 60t-93.5 32t-96 10.5q-55 1 -112.5 -9.5t-108 -35.5t-88 -66t-52.5 -99h-120q16 84 65 143.5t116.5 97t147 54t157.5 15.5q46 -1 94 -8t92.5 -21.5t83.5 -37.5t67.5 -56t42.5 -76.5t10 -98.5 q-4 -53 -27.5 -93t-58.5 -70.5t-79 -52t-89 -36.5q43 -14 79 -35.5t61.5 -52.5t38.5 -70.5t10 -87.5q-4 -61 -27.5 -109t-61.5 -84.5t-87 -62t-103 -41t-109.5 -22t-107.5 -5.5q-77 1 -151.5 20.5t-134 59t-95.5 101.5t-35 149l120 -1q-4 -62 22.5 -105t71 -70t99.5 -40 t107 -14q36 -1 77 3t80.5 14t76.5 27t66 42t48 58.5t24 77.5q7 63 -19 101t-69 59t-96.5 28t-101.5 8l-209 1l19 104z" />
<glyph unicode="&#x438;" d="M970 1082h124l-188 -1082h-120l154 883l-740 -883h-122l188 1082h118l-154 -884z" />
<glyph unicode="&#x439;" d="M970 1082h124l-188 -1082h-120l154 883l-740 -883h-122l188 1082h118l-154 -884zM1022 1495q-9 -60 -34.5 -108t-65 -82t-91 -51.5t-112.5 -16.5q-58 1 -105.5 19.5t-81 52.5t-51 81t-16.5 105l100 -1q-2 -77 37 -123t119 -48q42 -1 75 11t58.5 34.5t43 54.5t27.5 70z " />
<glyph unicode="&#x43a;" d="M493 496h-193l-86 -496h-121l189 1082h120l-84 -480h181l504 480l160 -1l-562 -530l416 -551h-147z" />
<glyph unicode="&#x43b;" d="M1085 1082l-188 -1082h-120l170 979h-448l-72 -375q-11 -60 -24.5 -128.5t-33.5 -136t-49.5 -129t-72 -108.5t-101 -75t-137.5 -27h-48l15 105h37q59 2 101.5 27.5t72.5 66.5t49.5 93t33 106.5t22 108t16.5 97.5l93 478h684z" />
<glyph unicode="&#x43c;" d="M507 166l452 916h145l-188 -1082h-117l141 808l-414 -808h-85l-137 847l-148 -847h-116l188 1082h147z" />
<glyph unicode="&#x43d;" d="M906 0h-120l86 496h-589l-87 -496h-118l188 1082h118l-84 -485h590l84 485h120z" />
<glyph unicode="&#x43e;" d="M119 550q9 71 32 140t58 131t82.5 114.5t105.5 90t126 58t146 18.5q74 -2 133.5 -24.5t105 -60.5t77 -90t49.5 -111.5t23.5 -124.5t-1.5 -131l-4 -34q-14 -107 -58.5 -206.5t-115 -176t-166 -121.5t-210.5 -42q-110 3 -188.5 50t-126 122.5t-65.5 171t-7 193.5zM234 516 q-8 -73 1 -149t41 -139t88.5 -104t143.5 -44q92 -3 166 36t128 103t87 145t45 163l4 32q8 73 -1 150t-41 141t-89 106t-144 45q-93 3 -166.5 -37t-127.5 -104.5t-87 -146.5t-44 -163z" />
<glyph unicode="&#x43f;" d="M906 0h-120l170 979h-589l-170 -979h-119l188 1082h828z" />
<glyph unicode="&#x440;" d="M1025 536q-9 -66 -28 -134t-48.5 -130.5t-70 -116.5t-93 -94t-116.5 -62t-141 -20q-90 2 -168.5 40t-128.5 113l-99 -548h-119l260 1498l111 1l-28 -148q65 78 150 123.5t190 43.5q73 -2 128 -26t94.5 -64.5t64 -94t37 -113t14 -123t-5.5 -123.5zM909 558q6 46 6 96 t-8 98.5t-25 92t-46.5 77t-72 54t-100.5 22.5q-53 2 -99.5 -12.5t-87 -41.5t-74 -64t-60.5 -80l-91 -539q32 -83 99 -131t157 -50q62 -2 114 16.5t93.5 51.5t74 78t56 96t38.5 106t23 108z" />
<glyph unicode="&#x441;" d="M524 81q61 -2 116 15.5t100 50.5t77.5 80t48.5 106h113q-15 -81 -58.5 -147t-105.5 -112.5t-139 -71t-158 -22.5q-74 2 -133 24t-103 60t-73.5 89t-46 110t-21 124t2.5 130l5 43q9 70 31 138t56 129t80 112.5t102.5 88t123.5 56.5t144 18q83 -2 150.5 -31.5t115 -81 t72.5 -121.5t22 -152l-114 1q3 59 -13.5 110t-49 89t-80.5 60.5t-109 24.5q-92 3 -164 -35.5t-124 -101.5t-83.5 -143t-42.5 -161l-5 -42q-9 -73 -2 -149.5t36 -139.5t84.5 -104t144.5 -44z" />
<glyph unicode="&#x442;" d="M1173 980h-447l-170 -980h-120l170 980h-432l18 102h999z" />
<glyph unicode="&#x443;" d="M514 220l9 -59l540 921h140l-758 -1256q-30 -53 -67.5 -101.5t-83.5 -85t-101 -58t-121 -20.5q-26 0 -52.5 4.5t-52.5 11.5l26 98q20 -3 41 -6t42 -3q47 0 86.5 17t72.5 45.5t60 65t49 73.5l103 168l-287 1047l124 1z" />
<glyph unicode="&#x444;" d="M118 551q14 103 53.5 196.5t103.5 167t150.5 122t193.5 61.5l80 438h119l-80 -440q97 -17 162.5 -70t103 -127t50 -162.5t2.5 -176.5l-4 -34q-14 -103 -53.5 -195.5t-103 -165.5t-150 -120.5t-193.5 -60.5l-73 -400h-119l73 402q-96 17 -161 69.5t-103.5 125.5t-51 160.5 t-3.5 175.5zM234 517q-8 -65 -2.5 -133.5t28.5 -128.5t67.5 -105.5t116.5 -63.5l164 911q-81 -16 -145 -58.5t-110 -103t-75 -134t-40 -151.5zM938 559q8 65 3 134t-29 129.5t-69 106.5t-117 65l-163 -911q81 16 145 58t110.5 102t75.5 133t40 151z" />
<glyph unicode="&#x445;" d="M608 642l394 440h151l-488 -536l326 -546h-132l-269 459l-414 -459h-149l507 556l-314 526h133z" />
<glyph unicode="&#x446;" d="M293 1082h120l-171 -981h563l170 981h120l-170 -981h107l-82 -422h-110l56 321h-791z" />
<glyph unicode="&#x447;" d="M906 0h-119l84 456q-76 -27 -154.5 -41t-159.5 -13q-95 1 -167.5 28.5t-119 80t-66.5 127.5t-9 170l42 274h120l-44 -275q-8 -70 3 -125.5t41.5 -94t81.5 -59.5t123 -22q81 -2 161 10.5t158 36.5l94 529h119z" />
<glyph unicode="&#x448;" d="M333 1082l-171 -981h290l171 981h117l-170 -981h287l171 981h116l-188 -1082h-927l188 1082h116z" />
<glyph unicode="&#x449;" d="M327 1082l-171 -981h290l171 981h117l-170 -981h243v1h44l171 980h116l-171 -980h88l-83 -423h-107l56 321h-898l188 1082h116z" />
<glyph unicode="&#x44a;" d="M143 1082h427l-71 -411l240 -2q71 -2 131.5 -25t104 -64.5t66 -100.5t16.5 -134q-6 -84 -43 -148.5t-94 -108.5t-130 -66.5t-152 -21.5h-374l170 980h-309zM482 569l-82 -468l242 -2q55 1 106 17t91 47t66.5 76t32.5 103q5 50 -7.5 90.5t-39.5 70t-66.5 46.5t-88.5 19z " />
<glyph unicode="&#x44b;" d="M286 671l163 -2q69 -3 121.5 -29t87.5 -69.5t51 -101t11 -124.5q-6 -76 -36.5 -140t-79 -109.5t-114 -71t-141.5 -24.5h-295l188 1082h116zM269 569l-81 -468l164 -2q53 1 96.5 20t75 51.5t51 76.5t24.5 95q5 41 -1 80.5t-24.5 71t-50 51.5t-77.5 23zM932 0h-116 l188 1082h117z" />
<glyph unicode="&#x44c;" d="M313 671l331 -1q72 -3 137 -24.5t113.5 -62t75.5 -100t21 -138.5q-6 -88 -47 -153t-103 -108t-140 -64t-158 -20h-466l188 1082h119zM295 569l-81 -468l333 -2q57 1 112 15.5t100 44.5t75.5 76t37.5 108q6 54 -11 95t-49.5 69.5t-77 43.5t-93.5 17z" />
<glyph unicode="&#x44d;" d="M630 1000q-62 2 -119.5 -15t-104 -50t-80 -81t-47.5 -109l-114 -1q14 84 58.5 151t108.5 113.5t142 71t161 22.5q113 -3 194 -48.5t130.5 -120t68.5 -170t9 -198.5l-5 -43q-14 -110 -60 -209.5t-119.5 -174.5t-171.5 -118t-215 -40q-84 2 -154 31t-119 79.5t-74 121 t-20 154.5h115q-5 -61 11.5 -112.5t50.5 -89.5t84 -60t112 -23q93 -3 166 31t127.5 92t91 134.5t56.5 157.5h-515l18 101h509q7 76 -6.5 147.5t-49.5 127.5t-95.5 91t-143.5 37z" />
<glyph unicode="&#x44e;" d="M234 589h177q12 54 29 113.5t41.5 117.5t57.5 110t76 91t97 61.5t122 20.5t116 -29t80 -70.5t50 -99t25 -115t5.5 -119t-7.5 -110.5l-4 -34q-8 -56 -23 -119.5t-39 -124.5t-57 -117t-77.5 -98t-101 -65.5t-126.5 -21.5q-64 2 -111 26.5t-79 64t-51.5 91.5t-28.5 107.5 t-9 112t6 106.5l-185 -1l-85 -487h-116l188 1082h116zM523 518q-4 -33 -7.5 -77.5t-2 -92.5t9.5 -95.5t27.5 -85t51.5 -61.5t81 -26q52 -2 93 19.5t72.5 58t54 83.5t38.5 97.5t25.5 99t15.5 88.5l4 33q4 33 7.5 78t2 93.5t-9.5 96t-27.5 86t-51.5 62.5t-81 26 q-53 2 -94 -19.5t-72 -58.5t-53.5 -85t-38 -98.5t-25.5 -100t-15 -88.5z" />
<glyph unicode="&#x44f;" d="M1062 1082l-188 -1082h-119l76 436h-361l-341 -436h-139l358 454q-48 18 -84 47.5t-59.5 68t-34 84.5t-6.5 97q6 85 46.5 147.5t101.5 103.5t136.5 61t152.5 20zM282 749q-5 -47 7.5 -85t38.5 -65t63.5 -42.5t82.5 -17.5l374 -1l77 442l-327 2q-54 -1 -108 -15t-98 -42.5 t-73.5 -72t-36.5 -103.5z" />
<glyph unicode="&#x450;" d="M539 -20q-109 3 -190 48t-132.5 118t-73.5 167t-12 194l5 44q9 69 32.5 137t59.5 130t84 115t106.5 91t126.5 59t143 19q103 -3 176 -46t117.5 -112t61 -157t6.5 -181l-9 -73h-786l-5 -24q-11 -76 2.5 -151t51.5 -135.5t99.5 -99t145.5 -41.5q99 -4 181.5 36t151.5 108 l71 -57q-78 -94 -185 -142.5t-228 -46.5zM682 1000q-81 3 -147 -28t-117.5 -82.5t-88.5 -118.5t-60 -136l663 -1l3 15q9 64 -3 126t-44.5 111.5t-84.5 80.5t-121 33zM777 1244h-95l-170 266h134z" />
<glyph unicode="&#x451;" d="M539 -20q-109 3 -190 48t-132.5 118t-73.5 167t-12 194l5 44q9 69 32.5 137t59.5 130t84 115t106.5 91t126.5 59t143 19q103 -3 176 -46t117.5 -112t61 -157t6.5 -181l-9 -73h-786l-5 -24q-11 -76 2.5 -151t51.5 -135.5t99.5 -99t145.5 -41.5q99 -4 181.5 36t151.5 108 l71 -57q-78 -94 -185 -142.5t-228 -46.5zM682 1000q-81 3 -147 -28t-117.5 -82.5t-88.5 -118.5t-60 -136l663 -1l3 15q9 64 -3 126t-44.5 111.5t-84.5 80.5t-121 33zM446 1408q1 16 8.5 31t19 26t26 18t31.5 7q34 0 57 -24t20 -58q-2 -33 -27 -56t-58 -24q-34 0 -56.5 23 t-20.5 57zM871 1407q1 16 8 31t18.5 26t26.5 18t32 7q34 0 56.5 -24t20.5 -58q-2 -33 -27.5 -56t-57.5 -24q-34 0 -56.5 23t-20.5 57z" />
<glyph unicode="&#x452;" d="M693 1235h-278l-66 -362q34 50 75.5 92.5t91 73t105.5 47.5t119 16q89 -2 149.5 -36.5t96 -91t47 -130t2.5 -153.5l-43 -257h4l-87 -522q-10 -73 -37.5 -137.5t-72 -112.5t-106.5 -75.5t-141 -27.5q-33 0 -64.5 6t-63.5 14l22 100q27 -8 55 -13t56 -5q53 0 93.5 21.5 t69 56.5t45.5 80.5t24 92.5l14 88h-3l116 692q7 60 0 114.5t-31.5 96.5t-68.5 67t-111 27q-61 1 -115 -17t-101 -50.5t-85.5 -76.5t-68.5 -93l-131 -760h-119l214 1235h-202l18 102h202l35 199h119l-37 -199h278z" />
<glyph unicode="&#x453;" d="M1088 979h-710l-170 -979h-122l188 1082h833zM811 1487h151l-266 -265h-106z" />
<glyph unicode="&#x454;" d="M525 81q61 -2 116 15.5t100 50.5t77.5 80t48.5 106h113q-15 -81 -58.5 -147t-105.5 -112.5t-139 -71t-158 -22.5q-74 2 -133 24t-103 60t-73.5 89t-46 110t-21 124t2.5 130l5 43q9 70 31 138t56 129t80 112.5t102.5 88t123.5 56.5t144 18q83 -2 150.5 -31.5t115 -81 t72.5 -121.5t22 -152l-114 1q3 59 -13.5 110t-49 89t-80.5 60.5t-109 24.5q-88 2 -157.5 -32.5t-120.5 -92t-83.5 -132t-47.5 -152.5h489l-18 -101h-484q-6 -71 3 -143t39 -130.5t84.5 -96.5t139.5 -40z" />
<glyph unicode="&#x455;" d="M868 282q6 55 -18.5 92t-65 62t-89 40t-89.5 25q-39 10 -81 22t-82.5 29t-76 39t-62 52t-41 68.5t-11.5 88.5q3 53 23.5 96t53 77t74.5 58.5t89 40.5t95.5 23.5t94.5 6.5q74 -1 142.5 -21.5t120.5 -60.5t82.5 -100.5t29.5 -141.5l-118 1q2 55 -20 96t-58.5 68.5 t-84.5 41.5t-98 15q-47 1 -98.5 -9.5t-96 -33.5t-75.5 -61t-37 -92t18.5 -89t64.5 -57.5t87.5 -35t88.5 -22.5q40 -10 83 -22.5t83.5 -30.5t76.5 -41.5t62 -55t40 -71.5t11 -90q-3 -56 -24.5 -101t-55 -79.5t-78 -59.5t-93 -40.5t-100 -22.5t-99.5 -6q-74 1 -146 20.5 t-128.5 59.5t-91 100.5t-33.5 143.5h118q2 -60 26.5 -102t64 -68.5t90 -39t104.5 -13.5q48 0 103 9.5t102.5 33t81.5 62.5t41 96z" />
<glyph unicode="&#x456;" d="M297 1082h490l-170 -976h358l-19 -106h-847l19 106h370l151 869h-371zM685 1376q2 40 27 66.5t66 27.5q40 1 64 -25t22 -65t-28 -64.5t-65 -26.5q-40 -1 -64 23.5t-22 63.5z" />
<glyph unicode="&#x457;" d="M297 1082h490l-170 -976h358l-19 -106h-847l19 106h370l151 869h-371zM484 1418q1 16 8.5 31t19 26t26 18t31.5 7q34 0 57 -24t20 -58q-2 -33 -27 -56t-58 -24q-34 0 -56.5 23t-20.5 57zM909 1417q1 16 8 31t18.5 26t26.5 18t32 7q34 0 56.5 -24t20.5 -58 q-2 -33 -27.5 -56t-57.5 -24q-34 0 -56.5 23t-20.5 57z" />
<glyph unicode="&#x458;" d="M375 1082h497l-185 -1082q-14 -95 -50.5 -175.5t-95 -139.5t-139 -92t-180.5 -33q-51 0 -102 5t-102 13l17 100q45 -7 91 -10.5t92 -3.5q78 -1 138.5 24t104.5 70t70.5 107t37.5 135l165 975h-379zM767 1377q2 40 26 66t65 27t65 -24t22 -65t-28 -65t-65 -26 q-40 -1 -63.5 23.5t-21.5 63.5z" />
<glyph unicode="&#x459;" d="M795 1082l-76 -433l139 -2q66 -3 117.5 -28t85.5 -67t50 -98t11 -121q-6 -74 -35 -135.5t-76.5 -105.5t-111 -68.5t-137.5 -23.5h-272l170 979h-274l-65 -375q-8 -50 -18 -115t-25.5 -132.5t-39 -132t-60 -115t-87.5 -80.5t-121 -29h-42l15 101l29 -1q49 2 83.5 30.5 t58.5 73t39 100t24.5 111t15 105.5t11.5 84l83 478h508zM702 548l-78 -448l141 -2q51 1 92.5 20t72.5 51t50 74.5t24 91.5q4 40 -2 77t-24 66t-48.5 47.5t-73.5 21.5z" />
<glyph unicode="&#x45a;" d="M254 652h330l75 430h116l-75 -433l139 -2q66 -3 114.5 -29t79.5 -68.5t44.5 -98t8.5 -117.5q-6 -71 -32.5 -132.5t-71.5 -106.5t-105.5 -70.5t-133.5 -24.5h-272l96 551h-330l-96 -551h-117l189 1082h116zM683 548l-78 -448l142 -2q49 1 88 21t67 52.5t45 75t22 88.5 q4 37 -0.5 73.5t-19.5 66.5t-42.5 49.5t-69.5 22.5z" />
<glyph unicode="&#x45b;" d="M740 1249h-333l-69 -376q34 50 75.5 92.5t91 73t105.5 47.5t119 16q89 -2 149.5 -36.5t96 -91t47 -130t2.5 -153.5l-116 -691h-119l116 692q7 60 0 114.5t-31.5 96.5t-68.5 67t-111 27q-61 1 -115 -17t-101 -50.5t-85.5 -76.5t-68.5 -93l-131 -760h-119l217 1249h-147 l18 102h147l32 185h119l-34 -185h333z" />
<glyph unicode="&#x45c;" d="M493 496h-193l-86 -496h-121l189 1082h120l-84 -480h181l504 480l160 -1l-562 -530l416 -551h-147zM762 1486h151l-266 -265h-106z" />
<glyph unicode="&#x45d;" d="M970 1082h124l-188 -1082h-120l154 883l-740 -883h-122l188 1082h118l-154 -884zM760 1223h-95l-170 266h134z" />
<glyph unicode="&#x45e;" d="M514 220l9 -59l540 921h140l-758 -1256q-30 -53 -67.5 -101.5t-83.5 -85t-101 -58t-121 -20.5q-26 0 -52.5 4.5t-52.5 11.5l26 98q20 -3 41 -6t42 -3q47 0 86.5 17t72.5 45.5t60 65t49 73.5l103 168l-287 1047l124 1zM1043 1508q-9 -60 -34.5 -108t-65 -82t-91 -51.5 t-112.5 -16.5q-58 1 -105.5 19.5t-81 52.5t-51 81t-16.5 105l100 -1q-2 -77 37 -123t119 -48q42 -1 75 11t58.5 34.5t43 54.5t27.5 70z" />
<glyph unicode="&#x45f;" d="M385 1082l-170 -981h589l170 981h120l-188 -1082h-350l-62 -353h-119l61 353h-358l188 1082h119z" />
<glyph unicode="&#x460;" d="M1262 1456l-183 -1080q-10 -67 -33 -138t-62.5 -129t-97.5 -94.5t-138 -34.5q-43 1 -77.5 16t-60 41t-41.5 60.5t-23 75.5q-20 -39 -44 -74t-55 -62t-69 -42.5t-85 -14.5q-51 1 -88.5 19.5t-63.5 49t-42 70.5t-24 83.5t-8.5 88t4.5 84.5l186 1081h116l-183 -1082 q-3 -23 -4.5 -53t0.5 -62.5t8.5 -64t20 -56.5t36 -41t55.5 -17q36 -1 64 13t50 37.5t37.5 54t27 63.5t18.5 66t11 61l186 1081h119l-182 -1082q-3 -24 -4.5 -55t1 -63t10 -63.5t22 -56t38 -40t57.5 -16.5q53 -1 88.5 30t58 76.5t34.5 97t18 91.5l187 1081h115z" />
<glyph unicode="&#x461;" d="M1208 1082l-121 -717q-10 -68 -34 -138t-65 -125.5t-100.5 -90t-139.5 -32.5q-43 1 -79 15.5t-63 39.5t-45 59.5t-25 76.5q-20 -40 -45.5 -75t-57.5 -61.5t-71.5 -41t-87.5 -13.5q-51 1 -89 18.5t-65.5 46t-45 66.5t-26.5 80.5t-10.5 87t3.5 86.5l122 718h117l-119 -719 q-3 -24 -4 -54.5t1.5 -61.5t10 -61t22.5 -53.5t38 -38t57 -15.5q54 -2 92.5 26.5t64 71t40 93t20.5 93.5l122 719h120l-120 -719q-3 -25 -3.5 -55.5t3 -62t12 -61t24.5 -52.5t40 -37.5t59 -15.5q54 -1 91 27.5t61 71.5t37.5 93t19.5 92l122 719h117z" />
<glyph unicode="&#x462;" d="M683 1127h-277l-53 -305l281 -1q89 -3 162.5 -31.5t124.5 -79.5t76 -124t17 -165q-9 -101 -53 -180t-112.5 -133t-156.5 -81.5t-185 -26.5h-414l195 1127h-201l18 102h200l40 227h119l-40 -227h278zM336 720l-108 -619l283 -2q74 0 140 22.5t117.5 64t85 101.5t41.5 136 q7 66 -9 119.5t-51 91.5t-87 60t-116 25z" />
<glyph unicode="&#x463;" d="M740 1079h-315l-71 -408l292 -1q72 -3 135 -25t109 -63.5t71 -101t19 -136.5q-6 -86 -45 -150.5t-99 -108t-136 -65t-155 -20.5h-426l187 1079h-192l18 101h191l65 368h119l-65 -368h316zM337 569l-81 -468l293 -2q56 0 109.5 15.5t96 46t71 76t34.5 105.5q6 52 -9 93 t-45 70t-72 45t-91 18z" />
<glyph unicode="&#x464;" d="M291 812h166l13 71q10 59 27 126.5t42 134t60 128t81.5 107.5t106.5 73t135 25q59 -1 103.5 -21t77 -53t53.5 -77t32.5 -92.5t15 -100t1.5 -99.5h-107q0 33 -1.5 71t-7.5 75.5t-18 72t-32.5 61t-51 43t-74.5 18.5q-57 2 -101.5 -22t-78 -64.5t-57 -92.5t-40.5 -107 t-28 -108t-18 -95l-14 -74h313l-18 -101h-309l-22 -138q-5 -35 -10 -84t-5 -103t7.5 -107.5t27 -96.5t54 -70.5t88.5 -29.5q47 -2 84 12t66 39t50.5 59t38 72t28.5 78t23 77l104 1q-15 -78 -45 -157.5t-79 -143t-117.5 -102.5t-160.5 -36q-72 2 -122.5 32.5t-83.5 79 t-50.5 110t-23.5 126.5t-3.5 128.5t10.5 116.5l22 137h-170l-123 -711h-117l253 1456h117z" />
<glyph unicode="&#x465;" d="M901 499l-335 1l-1 -11q-5 -33 -8.5 -76t-1.5 -88t11.5 -88.5t29.5 -77.5t52.5 -56t80.5 -23q50 -2 88 19t65.5 54.5t46 76.5t29.5 85l110 1q-10 -66 -39 -127t-74 -108.5t-104.5 -75.5t-130.5 -26q-65 2 -113 26t-81 64t-52.5 91.5t-28 107.5t-7 113t10.5 108l2 11 l-183 -1l-86 -499h-118l188 1082h118l-84 -481h174q11 55 27.5 114.5t40.5 116t57 106.5t76 87t98 58t123 19q73 -2 125 -35.5t83.5 -86t43.5 -117t7 -128.5h-112q1 27 -0.5 57t-8 59t-17.5 55.5t-28.5 47t-43 33.5t-59.5 14q-50 2 -89.5 -16.5t-70 -50t-52.5 -73t-38 -86.5 t-26.5 -90.5t-18.5 -83.5h342z" />
<glyph unicode="&#x466;" d="M858 475h-221l-83 -475h-118l83 475h-204l-242 -475h-128l752 1456h111l243 -1456h-118zM369 581h471l-112 704z" />
<glyph unicode="&#x467;" d="M794 347h-172l-61 -347h-120l61 347h-175l-203 -347h-129l636 1082h104l262 -1082h-118zM386 449h384l-92 380l-15 114l-61 -125z" />
<glyph unicode="&#x468;" d="M926 488h-131l-86 -488h-98l86 488h-124l-200 -488h-123l207 488h-221l-85 -488h-117l253 1456h117l-150 -862h247l364 862h107l95 -1456h-114zM616 594h305l-34 663z" />
<glyph unicode="&#x469;" d="M903 345h-124l-61 -345h-104l61 345h-125l-175 -345h-125l175 345h-220l-60 -345h-118l189 1082h117l-110 -631h257l322 631h103l163 -1082h-115zM603 451h284l-61 437l1 14l-6 -18z" />
<glyph unicode="&#x46a;" d="M13 0l66 407q12 82 41.5 148.5t77.5 114.5t115 74.5t153 27.5h62l-211 684h869l-445 -687h50q80 -2 134.5 -31.5t87 -78.5t43 -114t2.5 -138l-68 -407h-117l66 408q6 48 3.5 93t-18 81t-48.5 59t-89 26l-105 4l-4 -8l-118 -663h-116l116 669l-99 2q-63 -1 -108.5 -20.5 t-76.5 -54.5t-49.5 -83t-27.5 -106l-69 -407h-117zM637 793l347 561h-512z" />
<glyph unicode="&#x46b;" d="M25 0l34 220q12 85 42.5 154t80.5 118t119 76t158 28l7 -1l-197 487h824l-378 -490q80 -5 135 -35t87 -79.5t42.5 -115t2.5 -140.5l-35 -222h-117l33 223q5 50 2.5 97t-19.5 84t-52 60.5t-93 26.5l-58 2l-12 -16l-85 -477h-118l88 486l-2 7l-62 1q-65 0 -112.5 -20 t-80 -56t-52.5 -86t-29 -110l-36 -222h-117zM583 594h7l286 385l-438 -1z" />
<glyph unicode="&#x46c;" d="M246 770h437l-123 686h656l-365 -688h25q67 -3 107.5 -33t61.5 -76.5t25.5 -103t-2.5 -111.5l-76 -444h-100l72 444q4 32 6 69t-5.5 69.5t-29 55.5t-63.5 28l-68 3l-3 -5l-118 -664h-100l121 665l-1 7h-67q-49 -3 -81.5 -23.5t-53.5 -52t-33 -71.5t-18 -82l-76 -443h-100 l73 443q11 63 32.5 119.5t62.5 107.5l-213 -2l-116 -668h-108l253 1456h108zM774 830l263 524h-343z" />
<glyph unicode="&#x46d;" d="M280 0l42 262q11 64 33 120t64 107l-215 -2l-85 -487h-109l188 1082h110l-86 -493h417l-131 493h641l-309 -497q64 -6 104.5 -36t61.5 -74.5t26 -99.5t-1 -111l-44 -264h-100l40 264q4 37 4.5 74.5t-10 69t-35.5 53t-71 24.5l-30 1l-13 -19h-3l-84 -467h-101l86 477 l-3 11l-39 1q-51 -1 -86.5 -19.5t-59.5 -49.5t-37.5 -72t-20.5 -86l-43 -262h-101zM738 603l226 381h-319z" />
<glyph unicode="&#x46e;" d="M552 795q72 0 143 15t129 49t97.5 89.5t48.5 136.5q7 67 -14 117t-61.5 83t-95.5 49.5t-116 18.5l-321 1l18 102l306 -1q83 -2 159 -26.5t133 -71t88 -115.5t24 -161q-6 -68 -34.5 -121.5t-72.5 -95t-99.5 -71t-115.5 -50.5q116 -39 175 -127t49 -212q-9 -106 -60 -184 t-128 -129t-172 -76t-191 -25l-66 1q-33 -1 -66.5 -8t-60.5 -23t-45.5 -42t-22.5 -63q-4 -34 6.5 -61.5t30 -49t45.5 -38.5t53 -29l-51 -85q-40 18 -76.5 44.5t-63.5 60t-42.5 74.5t-13.5 88q3 64 31 109t72.5 72.5t99.5 39.5t111 12l62 -1q73 0 145.5 18t132.5 56t101 96.5 t50 138.5q9 79 -15 134t-70 90t-109 51t-132 18l-137 1l18 103zM736 1719l201 182l107 1l-1 -16l-267 -248h-85l-193 247l2 18l104 -1z" />
<glyph unicode="&#x46f;" d="M529 600q35 0 73.5 3t76.5 11.5t73 23.5t62.5 37.5t46 54.5t22.5 75q5 52 -18.5 85.5t-62.5 52.5t-85.5 26.5t-86.5 8.5l-292 1l18 103l277 -1q63 -2 130 -16.5t122 -47t88 -85t28 -129.5q-3 -53 -26 -93.5t-57.5 -71t-78 -52.5t-88.5 -38q42 -14 77 -35t60 -50 t38.5 -66.5t10.5 -83.5q-3 -60 -26.5 -107.5t-60 -83.5t-84.5 -61t-100.5 -41t-107 -23t-104.5 -7l-45 1q-33 -1 -66.5 -8t-60.5 -23t-45.5 -42t-22.5 -63q-4 -34 6.5 -61.5t30 -49t46 -38.5t53.5 -29l-52 -84q-40 18 -76 44t-63.5 60t-43 74.5t-13.5 87.5q3 64 31 108.5 t72.5 72t99.5 40t111 12.5h40q53 0 113.5 9.5t113.5 34t90.5 66t44.5 105.5q5 42 -6.5 72t-34 51t-53 34t-65 20.5t-69.5 10t-66 3.5h-136l19 103zM697 1390l201 182l107 1l-1 -16l-267 -248h-85l-193 247l2 18l104 -1z" />
<glyph unicode="&#x470;" d="M644 471q82 12 146.5 50.5t111.5 95.5t76.5 128.5t42.5 149.5l97 561h117l-95 -561q-17 -106 -58 -197t-106.5 -160.5t-153.5 -113t-198 -53.5l-68 -371h-119l69 372q-99 15 -168 63.5t-110 120t-54.5 159t-1.5 180.5l95 561h118l-94 -562q-9 -69 -2.5 -137t32 -125.5 t74 -99t123.5 -56.5l173 980h116z" />
<glyph unicode="&#x471;" d="M739 1082l-172 -1001q95 15 164.5 62.5t117.5 116.5t77 152.5t42 170.5q19 125 15 251t-34 249l121 -1q32 -122 33 -247.5t-16 -250.5q-17 -115 -56 -219t-104.5 -185.5t-158 -133.5t-216.5 -63l-78 -426h-117l78 429q-74 12 -127.5 44t-90.5 78.5t-58.5 104.5 t-30.5 121.5t-8 129.5t10 129l83 489h117l-83 -492q-6 -46 -9 -97.5t0.5 -103t15.5 -100.5t36.5 -89.5t62.5 -70.5t93 -43l176 996h117z" />
<glyph unicode="&#x472;" d="M1074 632q-13 -74 -36 -152t-58 -151t-81.5 -137.5t-106.5 -112.5t-133.5 -75t-160.5 -24q-83 2 -146 32.5t-108 80t-73.5 114.5t-42.5 136.5t-15 145.5t9 142l31 192q12 74 35.5 151.5t58.5 151t82 138t107 112.5t133.5 75t160.5 25q84 -2 147 -32.5t108 -80.5t73 -115 t41.5 -137t14 -146t-8.5 -142zM263 777h717l8 50q7 51 9 110.5t-5 119t-24.5 115t-49.5 98.5t-80 70t-116 29q-70 2 -128 -21.5t-105 -64.5t-83 -96t-62.5 -116.5t-44.5 -124.5t-28 -121zM963 676h-717l-7 -46q-7 -51 -9 -110.5t5 -119t25 -115.5t50 -99t80 -70t116 -29 q71 -3 129 20.5t105 64.5t82.5 96t62 116t44 125t27.5 122z" />
<glyph unicode="&#x473;" d="M105 550q9 71 32 140t58 131t82.5 114.5t105.5 90t126 58t146 18.5q74 -2 133.5 -24.5t105 -60.5t77 -90t49.5 -111.5t23.5 -124.5t-1.5 -131l-4 -34q-14 -107 -58.5 -206.5t-115 -176t-166 -121.5t-210.5 -42q-110 3 -188.5 50t-126 122.5t-65.5 171t-7 193.5zM494 80 q87 -3 157.5 32t123.5 93.5t88 133t51 152.5h-696q-5 -71 6.5 -143t43.5 -131t87.5 -97t138.5 -40zM649 1001q-87 2 -157 -32.5t-122.5 -92.5t-87.5 -132.5t-51 -150.5h696q4 70 -8 141.5t-45 129.5t-88 96t-137 41z" />
<glyph unicode="&#x474;" d="M491 250l10 -100l50 108l455 948q25 55 55 104t69.5 86t90 58.5t115.5 22.5h32l-14 -108l-11 1q-45 0 -79 -15.5t-61 -41.5t-47.5 -59.5t-37.5 -70.5l-580 -1183h-116l-222 1456h128z" />
<glyph unicode="&#x475;" d="M425 265l14 -129l66 138l308 625q18 39 41.5 76t54.5 66t69 46t86 16q27 0 51 -6.5t49 -17.5l-28 -93q-15 5 -29 9t-30 4q-27 0 -49.5 -10.5t-40.5 -28t-32 -39t-25 -43.5l-462 -878h-96l-204 1082h118z" />
<glyph unicode="&#x476;" d="M491 250l10 -100l50 108l455 948q25 55 55 104t69.5 86t90 58.5t115.5 22.5h32l-14 -108l-11 1q-45 0 -79 -15.5t-61 -41.5t-47.5 -59.5t-37.5 -70.5l-580 -1183h-116l-222 1456h128zM673 1547h-126l-248 266h158zM908 1547h-113l-197 266h145z" />
<glyph unicode="&#x477;" d="M425 265l14 -129l66 138l308 625q18 39 41.5 76t54.5 66t69 46t86 16q27 0 51 -6.5t49 -17.5l-28 -93q-15 5 -29 9t-30 4q-27 0 -49.5 -10.5t-40.5 -28t-32 -39t-25 -43.5l-462 -878h-96l-204 1082h118zM570 1252h-126l-248 266h158zM805 1252h-113l-197 266h145z" />
<glyph unicode="&#x478;" d="M598 550q-7 -48 -18 -109.5t-28 -125.5t-42.5 -125.5t-62.5 -109t-87.5 -75.5t-117.5 -25q-62 2 -101 34t-60.5 82.5t-29 112.5t-7 124.5t6.5 119.5t11 96l58 357q7 46 17 107t27 125t42 126t61 110t85 76t115 26q63 -2 103.5 -34t63.5 -81.5t31 -111.5t8 -124.5t-6 -120 t-11 -98.5zM542 927q3 22 8.5 63t9 90t2 100t-12 93t-33.5 69.5t-62 29.5q-44 2 -76 -22.5t-55.5 -64.5t-39 -90.5t-25.5 -100.5t-16 -95t-10 -73l-63 -396q-3 -21 -8.5 -62t-9.5 -90t-3 -100.5t11.5 -94t32.5 -70.5t61 -30q44 -2 77 22t56.5 64.5t39 91t26 101t16.5 95.5 t10 74zM849 339l-3 -18l281 761h114l-477 -1257q-15 -44 -37 -90.5t-53 -85t-72.5 -63t-95.5 -24.5q-22 1 -43.5 5.5t-42.5 9.5l13 97q17 -3 33.5 -6t33.5 -3q37 0 64.5 21t48.5 51.5t36 65t26 63.5l65 170v1046h103z" />
<glyph unicode="&#x479;" d="M54 553q6 49 17 109.5t29.5 122.5t45 120t65 103t89.5 71t117 24q63 -2 104.5 -31.5t66.5 -75.5t36 -104t13 -117.5t-2 -115.5t-9 -99l-4 -35q-6 -49 -17 -109.5t-29.5 -122t-45.5 -119t-65.5 -102t-89 -70t-116.5 -23.5q-63 2 -104.5 31t-66 74.5t-35.5 103t-13 116.5 t1.5 114.5t8.5 98.5zM849 340l-4 -21l283 763h113l-476 -1257q-15 -44 -36.5 -90.5t-52 -85t-71 -63.5t-94.5 -25q-22 0 -43.5 4.5t-42.5 9.5l11 99q16 -3 32.5 -6t33.5 -3q36 0 64 21t48.5 51.5t35.5 65.5t26 63l65 172l-1 1044h104zM169 518q-3 -24 -8 -65.5t-7.5 -89.5 t-0.5 -97.5t14 -90t36.5 -67t65.5 -28.5q46 -2 80 21.5t58.5 62.5t41.5 89t27.5 100t16.5 95.5t10 76.5l5 35q3 24 8 66t7 90.5t-0.5 98.5t-14.5 91t-37 67.5t-66 28.5q-46 2 -79.5 -22t-58 -63.5t-41 -89.5t-27 -100.5t-16.5 -96t-10 -76.5z" />
<glyph unicode="&#x47a;" d="M762 1248h-118l61 346h118zM521 -143h-118l62 351h118zM1078 632q-13 -74 -36 -152t-58 -151t-81.5 -137.5t-106.5 -112.5t-133.5 -75t-160.5 -24q-83 2 -146 32.5t-108 80t-73.5 114.5t-42.5 136.5t-15 145.5t9 142l31 192q12 74 35.5 151.5t58.5 151t82 138t107 112.5 t133.5 75t160.5 25q84 -2 147 -32.5t108 -80.5t73 -115t41.5 -137t14 -146t-8.5 -142zM992 827q7 51 9 110.5t-5 119t-24.5 115t-49.5 98.5t-80 70t-116 29q-71 2 -128.5 -21.5t-104.5 -64.5t-83 -96t-62.5 -116.5t-44.5 -124.5t-28 -121l-32 -195q-7 -51 -9 -110.5t5 -119 t25 -115.5t50 -99t80 -70t116 -29q71 -3 129 20.5t105 64.5t82.5 96t62 116t44 125t27.5 122z" />
<glyph unicode="&#x47b;" d="M704 875h-120l64 362h119zM523 -167h-119l65 371h119zM119 550q9 71 32 140t58 131t82.5 114.5t105.5 90t126 58t146 18.5q74 -2 133.5 -24.5t105 -60.5t77 -90t49.5 -111.5t23.5 -124.5t-1.5 -131l-4 -34q-14 -107 -58.5 -206.5t-115 -176t-166 -121.5t-210.5 -42 q-110 3 -188.5 50t-126 122.5t-65.5 171t-7 193.5zM234 516q-8 -73 1 -149t41 -139t88.5 -104t143.5 -44q92 -3 166 36t128 103t87 145t45 163l4 32q8 73 -1 150t-41 141t-89 106t-144 45q-93 3 -166.5 -37t-127.5 -104.5t-87 -146.5t-44 -163z" />
<glyph unicode="&#x47c;" d="M944 1453q81 -6 133 -46.5t80 -101t35 -133t-1 -141.5l-107 -647q-7 -46 -20 -94.5t-33 -94t-48 -85.5t-64 -69.5t-81 -46.5t-100 -15q-43 1 -78 16t-61 40.5t-43 59.5t-24 75q-20 -39 -44.5 -74t-56 -61.5t-70 -41.5t-85.5 -14q-52 1 -91.5 19.5t-67 49.5t-44.5 71.5 t-25.5 85t-9.5 91t4 88.5l107 647q12 82 40 157t74 133t113 94t157 41l-11 -100q-63 -6 -107 -37t-74 -76.5t-47 -101t-26 -110.5l-107 -648q-3 -24 -4.5 -56t1 -65.5t10 -66t22.5 -58t39 -41.5t59 -17q37 -1 66 12.5t51 37t38.5 54t28 63.5t19 66.5t11.5 62.5l87 509h117 l-84 -510q-3 -25 -4 -56t1.5 -63t10.5 -63t23 -56t38.5 -40.5t58.5 -16.5q37 -1 66.5 13t52 38.5t39 56.5t28 66t18.5 68t12 63l107 648q6 45 7 97.5t-12 99.5t-43.5 80.5t-87.5 41.5zM1133 1681l-8 -84h-29q-50 2 -90.5 27t-78.5 54.5t-77 53.5t-85 23q-32 0 -54.5 -13.5 t-38.5 -34.5t-26 -47.5t-17 -53.5l-5 -17h-87l2 31q4 46 21.5 87t46 71.5t68 48.5t88.5 17q51 -1 91 -25.5t78.5 -54.5t79 -55t91.5 -28h30zM660 1383q31 31 51.5 64t28.5 75l20 97l94 -1l-14 -101q-10 -60 -44.5 -107t-84.5 -79z" />
<glyph unicode="&#x47d;" d="M895 1098q79 -6 130 -42.5t79 -92t36 -123.5t0 -137l-53 -347q-10 -69 -34 -137.5t-65 -122.5t-100 -86.5t-139 -30.5q-83 2 -138.5 48t-72.5 126q-21 -38 -47 -70.5t-57.5 -56t-69.5 -36.5t-84 -12q-76 1 -125 37t-75.5 90.5t-33.5 121t0 129.5l54 347q12 81 39 152 t72.5 124t110.5 85.5t152 36.5l-12 -101q-60 -5 -102 -32t-70.5 -68.5t-45 -92.5t-24.5 -104l-54 -348q-3 -24 -4 -54t1.5 -60t10 -59t22.5 -52t38 -37t57 -15q54 -1 91.5 24.5t63 65t40 87.5t20.5 91l45 278h118l-44 -278q-4 -38 -2.5 -84t15.5 -86t43 -68t80 -29 q54 -2 90.5 25.5t60.5 69t37.5 90.5t19.5 91l54 349q6 45 6 93.5t-13 90.5t-43 71.5t-85 35.5zM1098 1347l-8 -86h-30q-35 1 -65 13.5t-57.5 30.5t-54 38.5t-53.5 37.5t-56 28t-61 11t-56.5 -12.5t-42 -33t-29 -47t-17.5 -54.5l-3 -18h-87l2 31q5 47 23 88.5t48 72t71 47.5 t91 16q52 -1 94 -25.5t82.5 -54.5t83 -55t95.5 -28h30zM598 1041q32 30 54 63t30 78l17 95l96 -1l-15 -101q-10 -60 -45 -107t-85 -79z" />
<glyph unicode="&#x47e;" d="M532 1778h592l-13 -81h-250l-20 -114h-107l21 114h-238zM1269 1456l-183 -1080q-10 -67 -33 -138t-62.5 -129t-97.5 -94.5t-138 -34.5q-43 1 -77.5 16t-60 41t-41.5 60.5t-23 75.5q-20 -39 -44 -74t-55 -62t-69 -42.5t-85 -14.5q-51 1 -88.5 19.5t-63.5 49t-42 70.5 t-24 83.5t-8.5 88t4.5 84.5l186 1081h116l-183 -1082q-3 -23 -4.5 -53t0.5 -62.5t8.5 -64t20 -56.5t36 -41t55.5 -17q36 -1 64 13t50 37.5t37.5 54t27 63.5t18.5 66t11 61l186 1081h119l-182 -1082q-3 -24 -4.5 -55t1 -63t10 -63.5t22 -56t38 -40t57.5 -16.5q53 -1 88.5 30 t58 76.5t34.5 97t18 91.5l187 1081h115z" />
<glyph unicode="&#x47f;" d="M439 1456h627l-13 -81h-267l-23 -130h-109l24 130h-254zM1208 1082l-121 -717q-10 -68 -34 -138t-65 -125.5t-100.5 -90t-139.5 -32.5q-43 1 -79 15.5t-63 39.5t-45 59.5t-25 76.5q-20 -40 -45.5 -75t-57.5 -61.5t-71.5 -41t-87.5 -13.5q-51 1 -89 18.5t-65.5 46 t-45 66.5t-26.5 80.5t-10.5 87t3.5 86.5l122 718h117l-119 -719q-3 -24 -4 -54.5t1.5 -61.5t10 -61t22.5 -53.5t38 -38t57 -15.5q54 -2 92.5 26.5t64 71t40 93t20.5 93.5l122 719h120l-120 -719q-3 -25 -3.5 -55.5t3 -62t12 -61t24.5 -52.5t40 -37.5t59 -15.5q54 -1 91 27.5 t61 71.5t37.5 93t19.5 92l122 719h117z" />
<glyph unicode="&#x480;" d="M563 -366h-118l65 350q-78 13 -136 49t-99 88t-66 117t-37 135t-12 141.5t10 138.5l25 159q12 75 35.5 154t59.5 153.5t83.5 140.5t108.5 115t135 76.5t162 25.5q102 -2 175.5 -41.5t120 -105t66 -150.5t12.5 -178h-117q3 68 -8.5 134t-41.5 118.5t-82.5 86t-131.5 35.5 q-72 2 -130.5 -22.5t-106 -67.5t-84.5 -100t-64 -120t-44.5 -128t-27.5 -123l-26 -163q-8 -52 -10 -114t5 -124t25 -120.5t50.5 -104t82 -75t118.5 -33.5l81 -1z" />
<glyph unicode="&#x481;" d="M553 -366h-119l65 350q-98 16 -162.5 68t-101 126.5t-47 162.5t-1.5 176l5 43q9 68 30.5 135.5t55 128.5t78.5 113t101 89t122 57.5t141 18.5q83 -2 148.5 -32.5t110 -82.5t66 -122t16.5 -150h-114q4 57 -9 108t-42.5 90t-75.5 62.5t-107 25.5q-90 3 -160 -36.5 t-120.5 -103.5t-81.5 -143.5t-42 -157.5l-5 -42q-6 -46 -5.5 -95.5t9 -97t26.5 -90.5t47.5 -76t71.5 -54t99 -24l75 -1z" />
<glyph unicode="&#x482;" d="M543 427l251 -172l-66 -89l-252 169l-240 -335h-140l291 403l-251 171l64 88l255 -170l285 399l-252 171l67 90l252 -170l260 360h138l-311 -427l255 -171l-69 -88l-250 169z" />
<glyph unicode="&#x483;" horiz-adv-x="10" d="M417 1339l-22 -123h-112l36 202h494l20 108h110l-34 -187h-492z" />
<glyph unicode="&#x484;" horiz-adv-x="10" d="M396 1394q43 1 82.5 13.5t77.5 30.5t74.5 39t74 38.5t76.5 29t82 11.5q49 -1 88 -17.5t65.5 -46t39 -70t9.5 -88.5l-4 -31h-90l2 19q5 60 -23.5 100.5t-92.5 42.5q-41 1 -79 -9.5t-75.5 -27.5t-74 -37.5t-74.5 -38t-78 -30t-82 -13.5h-34l10 85h26z" />
<glyph unicode="&#x485;" horiz-adv-x="10" d="M522 1506l23 127h137l-26 -148l40 -115l-59 -44z" />
</font>
</defs>
</svg>
